Поиск

2021 Anais Reno - Lovesome Thing {Harbinger} [24-96]

2021 Anais Reno - Lovesome Thing {Harbinger} [24-96]
Стили:
Битрейт аудио:
lossless
Доп. инфо:

Формат записи/Источник записи: [TR24][OF]
Наличие водяных знаков: Нет
Год издания: 2021
Издатель (лейбл): Harbinger Records
Продолжительность: 00:53:02
Наличие сканов в содержимом раздачи: Буклет PDF
Контейнер: FLAC (*.flac)
Тип рипа: tracks
Разрядность: 24/96
Формат: PCM
Количество каналов: 2.0
Источник (релизер): qobuz.com

Лог проверки качества
foobar2000 1.4.8 / Dynamic Range Meter 1.1.1
log date: 2021-04-14 13:53:34

--------------------------------------------------------------------------------
Analyzed: Anaïs Reno / Lovesome Thing
--------------------------------------------------------------------------------

DR         Peak         RMS     Duration Track
--------------------------------------------------------------------------------
DR7       -0.47 dB   -10.28 dB      4:55 01-Caravan
DR9       -0.59 dB   -13.09 dB      5:27 02-Mood Indigo
DR8       -0.58 dB   -12.30 dB      2:42 03-Still in Love
DR7       -0.60 dB   -11.12 dB      5:25 04-Chelsea Bridge / A Flower Is a Lovesome Thing
DR7       -0.40 dB   -11.20 dB      5:16 05-I'm Just a Lucky So-and-So
DR9       -0.61 dB   -13.64 dB      5:37 06-It's Kind of Lonesome Out Tonight
DR8       -0.59 dB   -13.66 dB      4:25 07-Day Dream
DR7       -0.58 dB   -10.31 dB      4:35 08-I Ain't Got Nothin' but the Blues
DR11      -0.62 dB   -15.24 dB      4:23 09-All Roads Lead Back to You
DR10      -0.61 dB   -15.64 dB      1:06 10-U.M.M.G. (Upper Manhattan Medical Group)
DR8       -0.59 dB   -13.59 dB      5:48 11-Lush Life
DR8       -0.58 dB   -11.24 dB      3:30 12-Take the "A" Train
--------------------------------------------------------------------------------

Number of tracks:  12
Official DR value: DR8
Samplerate:        96000 Hz
Channels:          2
Bits per sample:   24
Bitrate:           2655 kbps
Codec:             FLAC
================================================================================
No seeders - write personal message to M0p94ok. Any questions - support@pro-jazz.com.
Нет сидеров - пишите в личку M0p94ok. Есть вопросы - support@pro-jazz.com
20:59
60
Нет комментариев. Ваш будет первым!