Поиск

2021 Avishai Cohen & Gothenburg Symphony Orchestra - Two Roses {Naïve} [24-96]

2021 Avishai Cohen & Gothenburg Symphony Orchestra - Two Roses {Naïve} [24-96]
Дата записи диска:
1 января 2020
Место записи:
Gothenburg Concert Hall, Sweden; LennyTunes Studio
Дата издания диска:
16 апреля 2021
Издатель (лейбл):
Номер по каталогу:
M7370
Битрейт аудио:
lossless
Доп. инфо:

Формат записи/Источник записи: [TR24][OF]
Наличие водяных знаков: Нет
Год издания: 2021
Продолжительность: 01:02:25
Наличие сканов в содержимом раздачи: Буклет PDF
Контейнер: FLAC (*.flac)
Тип рипа: tracks
Разрядность: 24/96
Формат: PCM
Количество каналов: 2.0
Источник (релизер): qobuz.com

Лог проверки качества
foobar2000 1.4.8 / Dynamic Range Meter 1.1.1
log date: 2021-04-14 08:54:12

--------------------------------------------------------------------------------
Analyzed: Avishai Cohen & Gothenburg Symphony Orchestra / Two Roses
--------------------------------------------------------------------------------

DR         Peak         RMS     Duration Track
--------------------------------------------------------------------------------
DR11      -1.00 dB   -16.70 dB      3:59 01-Almah Sleeping
DR7       -1.00 dB   -10.10 dB      3:52 02-When I'm Falling
DR9       -1.00 dB   -14.24 dB      4:45 03-Song for My Brother
DR7       -1.00 dB   -10.40 dB      4:25 04-Two Roses (Shnei Shoshanim)
DR10      -1.00 dB   -15.16 dB      4:34 05-Nature Boy
DR9       -1.00 dB   -12.31 dB      7:14 06-Emotional Storm
DR8       -1.00 dB   -13.25 dB      6:24 07-Puncha Puncha
DR8       -1.00 dB   -11.06 dB      5:18 08-Arab Medley
DR11      -1.00 dB   -15.32 dB      8:35 09-A Child Is Born
DR7       -1.00 dB    -9.69 dB      4:55 10-Alon Basela
DR8       -1.00 dB   -12.61 dB      4:11 11-Morenika
DR10      -1.26 dB   -15.43 dB      4:16 12-Nature Talking
--------------------------------------------------------------------------------

Number of tracks:  12
Official DR value: DR9
Samplerate:        96000 Hz
Channels:          2
Bits per sample:   24
Bitrate:           2554 kbps
Codec:             FLAC
================================================================================
No seeders - write personal message to M0p94ok. Any questions - support@pro-jazz.com.
Нет сидеров - пишите в личку M0p94ok. Есть вопросы - support@pro-jazz.com
18:56
73
Нет комментариев. Ваш будет первым!