Поиск

1956 Morgana King - For You, For Me, Forever More (2019) {RevOla} [24-44.1]

1956 Morgana King - For You, For Me, Forever More (2019) {RevOla} [24-44.1]
Стили:
Дата переиздания диска:
2 июля 2019
Издатель (лейбл):
Битрейт аудио:
lossless
Доп. инфо:

Формат записи/Источник записи: [TR24][OF]
Издание: Remastered
Год издания/переиздания диска: 1956/2019
Продолжительность: 00:34:56
Наличие сканов в содержимом раздачи: Нет

Контейнер: FLAC (*.flac)
Тип рипа: tracks
Разрядность: 24/44,1
Количество каналов: 2.0

Источник (релизер): Qobuz

Лог проверки качества
foobar2000 1.4.3 / Dynamic Range Meter 1.1.1
log date: 2021-04-06 23:37:13

--------------------------------------------------------------------------------
Analyzed: Morgana King / For You, For Me, Forever More
--------------------------------------------------------------------------------

DR         Peak         RMS     Duration Track
--------------------------------------------------------------------------------
DR11      -4.41 dB   -18.67 dB      3:04 01-For You, For Me, Forevermore (Remastered)
DR10      -4.18 dB   -19.44 dB      3:09 02-Here I'll Stay (Remastered)
DR12      -4.26 dB   -19.63 dB      3:16 03-There's a Lull In My Life (Remastered)
DR11      -3.83 dB   -18.24 dB      2:13 04-Delovely (Remastered)
DR11      -4.01 dB   -18.71 dB      3:06 05-Down In the Depths (Remastered)
DR10      -5.04 dB   -18.72 dB      2:18 06-The Song Is You (Remastered)
DR9       -5.51 dB   -20.29 dB      2:28 07-In the Wee Small Hours of the Morning (Remastered)
DR10      -5.62 dB   -19.74 dB      3:17 08-Ev'rything I Love (Remastered)
DR12      -4.49 dB   -20.08 dB      3:22 09-If You Could See Me Now (Remastered)
DR12      -6.29 dB   -21.28 dB      3:14 10-I'll String Along With You (Remastered)
DR10      -4.91 dB   -18.01 dB      2:59 11-Everything I Got (Remastered)
DR11      -4.67 dB   -17.88 dB      2:35 12-You're Not So Easy to Forget (Remastered)
--------------------------------------------------------------------------------

Number of tracks:  12
Official DR value: DR11

Samplerate:        44100 Hz
Channels:          2
Bits per sample:   24
Bitrate:           1251 kbps
Codec:             FLAC
================================================================================
No seeders - write personal message to M0p94ok. Any questions - support@pro-jazz.com.
Нет сидеров - пишите в личку M0p94ok. Есть вопросы - support@pro-jazz.com
18:06
57
Нет комментариев. Ваш будет первым!