Поиск

1996 Aladar Pege - Ace of Bass {IN+OUT} [24-44.1]

1996 Aladar Pege - Ace of Bass {IN+OUT} [24-44.1]
Дата записи диска:
1 июля - 30 июля 1995
Место записи:
Cultural Center, Pécs, Hungary
Дата переиздания диска:
7 декабря 2016
Номер по каталогу:
IOR77032-2
Битрейт аудио:
lossless
Доп. инфо:

In memoriam: Hoppe

Формат записи/Источник записи: [TR24][OF]
Издание: Hi-Res
Год издания/переиздания диска: 1996
Издатель (лейбл): IN+OUT Records
Продолжительность: 00:58:02
Наличие сканов в содержимом раздачи: Нет
Контейнер: FLAC (*.flac)
Тип рипа: tracks
Разрядность: 24/44,1
Количество каналов: 2.0

Источник (релизер): HIGHRESAUDIO

Лог проверки качества
foobar2000 1.4.3 / Dynamic Range Meter 1.1.1
log date: 2021-04-12 21:12:27

--------------------------------------------------------------------------------
Analyzed: Aladár Pege Quartet / Ace of Bass
--------------------------------------------------------------------------------

DR         Peak         RMS     Duration Track
--------------------------------------------------------------------------------
DR11      -1.05 dB   -14.35 dB      5:34 01-Marlboró
DR12      -1.05 dB   -14.87 dB      3:42 02-Evening Walk
DR12      -1.05 dB   -14.47 dB      4:20 03-Coctail
DR11      -1.06 dB   -13.94 dB      4:48 04-Ostinató Nr. 17
DR12      -1.05 dB   -14.38 dB      4:44 05-Romantic Song
DR11      -1.06 dB   -13.79 dB      6:12 06-Windsurf
DR12      -1.05 dB   -14.80 dB      5:04 07-Square Wheel
DR12      -1.05 dB   -16.13 dB      7:37 08-On the Way
DR11      -4.31 dB   -17.08 dB      6:21 09-Before the Rain
DR13      -1.08 dB   -16.77 dB      4:20 10-Eastern Egg
DR11      -1.05 dB   -14.62 dB      5:28 11-Moving Elevator
--------------------------------------------------------------------------------

Number of tracks:  11
Official DR value: DR12

Samplerate:        44100 Hz
Channels:          2
Bits per sample:   24
Bitrate:           1620 kbps
Codec:             FLAC
================================================================================
No seeders - write personal message to M0p94ok. Any questions - support@pro-jazz.com.
Нет сидеров - пишите в личку M0p94ok. Есть вопросы - support@pro-jazz.com
17:16
56
Нет комментариев. Ваш будет первым!