Поиск

2019 Bill Evans - Smile With Your Heart: The Best of Bill Evans on Resonance Records {Resonance} [24-96]

2019 Bill Evans - Smile With Your Heart: The Best of Bill Evans on Resonance Records {Resonance} [24-96]
Дата издания диска:
21 июня 2019
Издатель (лейбл):
Битрейт аудио:
lossless
Доп. инфо:

Формат записи/Источник записи: [TR24][OF]
Издание: Remastered
Год издания/переиздания диска: 2019
Продолжительность: 01:09:21
Наличие сканов в содержимом раздачи: Нет

Контейнер: FLAC (*.flac)
Тип рипа: tracks
Разрядность: 24/96
Количество каналов: 2.0

Источник (релизер): Qobuz

Лог проверки качества
foobar2000 1.4.3 / Dynamic Range Meter 1.1.1
log date: 2021-04-05 13:54:10

--------------------------------------------------------------------------------
Analyzed: Bill Evans / Smile With Your Heart: The Best of Bill Evans on Resonance Records
--------------------------------------------------------------------------------

DR         Peak         RMS     Duration Track
--------------------------------------------------------------------------------
DR7       -2.48 dB   -12.50 dB      5:14 01-Someday My Prince Will Come (Live)
DR7       -3.63 dB   -13.67 dB      5:07 02-Yesterdays (Live)
DR8       -1.68 dB   -12.45 dB      4:22 03-Mother of Earl (Live)
DR9       -0.68 dB   -12.26 dB      3:32 04-You're Gonna Hear from Me
DR10      -2.06 dB   -14.62 dB      4:52 05-Baubles, Bangles and Beads
DR9       -1.82 dB   -13.69 dB      6:58 06-My Funny Valentine
DR11      -0.53 dB   -14.68 dB      8:34 07-Nardis (Live)
DR10      -0.78 dB   -13.23 dB      5:14 08-Very Early (Live)
DR9       -1.68 dB   -13.88 dB      4:54 09-Turn out the Stars (Live)
DR9       -1.68 dB   -13.77 dB      3:53 10-Polka Dots and Moonbeams (Live)
DR9       -2.49 dB   -14.09 dB      8:50 11-RE: Person I Know (Live)
DR8       -2.49 dB   -14.33 dB      7:57 12-Waltz for Debby (Live)
--------------------------------------------------------------------------------

Number of tracks:  12
Official DR value: DR9

Samplerate:        96000 Hz
Channels:          2
Bits per sample:   24
Bitrate:           2546 kbps
Codec:             FLAC
================================================================================
No seeders - write personal message to M0p94ok. Any questions - support@pro-jazz.com.
Нет сидеров - пишите в личку M0p94ok. Есть вопросы - support@pro-jazz.com
15:42
43
Нет комментариев. Ваш будет первым!