Вы используете незарегистрированную версию компонента "Вкладки"!

Поиск

1958, 1960 Lambert, Hendricks And Ross - The Swingers, The Hottest New Group in Jazz! (2020) {RevOla} [24-44.1]

1958, 1960 Lambert, Hendricks And Ross - The Swingers, The Hottest New Group in Jazz! (2020) {RevOla} [24-44.1]
Дата переиздания диска:
19 июня 2020
Издатель (лейбл):
Битрейт аудио:
lossless
Доп. инфо:

Формат записи/Источник записи: [TR24][OF]
Издание: Remastered
Год издания/переиздания диска: 1958-1960/2020
Продолжительность: 01:03:41
Наличие сканов в содержимом раздачи: Нет

Контейнер: FLAC (*.flac)
Тип рипа: tracks
Разрядность: 24/44,1
Количество каналов: 2.0

Источник (релизер): Qobuz

Лог проверки качества
foobar2000 1.6.2 / Dynamic Range Meter 1.1.1
log date: 2021-01-06 16:58:41

--------------------------------------------------------------------------------
Analyzed: Lambert, Hendricks, And Ross / The Swingers/The Hottest New Group in Jazz!
--------------------------------------------------------------------------------

DR         Peak         RMS     Duration Track
--------------------------------------------------------------------------------
DR14      -3.38 dB   -20.16 dB      3:31 01-Airegin (Remastered)
DR13      -4.98 dB   -21.44 dB      3:16 02-Babe's Blues (Remastered)
DR16      -3.29 dB   -22.20 dB      3:33 03-Dark Cloud (Remastered)
DR15      -3.96 dB   -21.82 dB      2:03 04-Jackie. (Remastered)
DR14      -4.06 dB   -22.22 dB      5:06 05-Swingin' Till The Girls Come Home (Remastered)
DR14      -3.90 dB   -20.59 dB      4:13 06-Four (Remastered)
DR13      -2.95 dB   -18.46 dB      3:30 07-Little Niles (Remastered)
DR12      -4.67 dB   -21.79 dB      2:57 08-Where? (Remastered)
DR12      -4.32 dB   -20.44 dB      2:58 09-Now's The Time (Remastered)
DR14      -2.63 dB   -19.49 dB      3:45 10-Love Makes The World Go Round (Remastered)
DR12      -2.60 dB   -16.95 dB      3:20 11-Charleston Alley (Remastered)
DR13      -2.72 dB   -18.14 dB      2:36 12-Moanin' (Remastered)
DR13      -3.00 dB   -17.48 dB      2:17 13-Twisted (Remastered)
DR13      -2.42 dB   -18.90 dB      3:18 14-Bijou (Remastered)
DR13      -2.08 dB   -17.65 dB      2:16 15-Cloudburst (Remastered)
DR13      -2.30 dB   -18.22 dB      2:28 16-Centerpiece (Remastered)
DR13      -3.06 dB   -18.73 dB      2:59 17-Gimme That Wine (Remastered)
DR14      -2.74 dB   -18.96 dB      3:48 18-Sermonette (Remastered)
DR10      -4.12 dB   -16.98 dB      1:45 19-Summertime (Remastered)
DR12      -2.96 dB   -16.69 dB      4:11 20-Everybody's Boppin' (Remastered)
--------------------------------------------------------------------------------

Number of tracks:  20
Official DR value: DR13

Samplerate:        44100 Hz
Channels:          2
Bits per sample:   24
Bitrate:           1583 kbps
Codec:             FLAC
================================================================================
Any questions - support@pro-jazz.com. Есть вопросы - support@pro-jazz.com
15:18
93
Нет комментариев. Ваш будет первым!