Поиск

2021 Vijay Iyer, Linda May Han Oh, Tyshawn Sorey - Uneasy {ECM} [24-96]

2021 Vijay Iyer, Linda May Han Oh, Tyshawn Sorey - Uneasy {ECM} [24-96]
Стили:
Дата издания диска:
9 апреля 2021
Издатель (лейбл):
Битрейт аудио:
lossless
Доп. инфо:

Формат записи/Источник записи: [TR24][OF]
Наличие водяных знаков: Нет
Год издания: 2021
Продолжительность: 01:11:46
Наличие сканов в содержимом раздачи: Буклет PDF
Контейнер: FLAC (*.flac)
Тип рипа: tracks
Разрядность: 24/96
Формат: PCM
Количество каналов: 2.0
Источник (релизер): highresaudio.com

Лог проверки качества
foobar2000 1.4.8 / Dynamic Range Meter 1.1.1
log date: 2021-04-11 06:29:57

--------------------------------------------------------------------------------
Analyzed: Vijay Iyer, Linda May Han Oh, Tyshawn Sorey / Uneasy
--------------------------------------------------------------------------------

DR         Peak         RMS     Duration Track
--------------------------------------------------------------------------------
DR15      -1.26 dB   -22.65 dB      6:26 01-Children Of Flint
DR15      -1.66 dB   -20.81 dB      7:51 02-Combat Breathing
DR17      -1.72 dB   -22.15 dB      9:34 03-Night And Day
DR14      -1.21 dB   -20.17 dB      7:18 04-Touba
DR15      -1.16 dB   -18.82 dB      6:48 05-Drummer’s Song
DR12      -2.08 dB   -24.21 dB      3:29 06-Augury
DR15      -1.26 dB   -19.79 dB      9:28 07-Configurations
DR15      -2.05 dB   -20.83 dB      9:12 08-Uneasy
DR14      -2.13 dB   -20.76 dB      6:40 09-Retrofit
DR14      -0.44 dB   -21.07 dB      5:06 10-Entrustment
--------------------------------------------------------------------------------

Number of tracks:  10
Official DR value: DR15
Samplerate:        96000 Hz
Channels:          2
Bits per sample:   24
Bitrate:           2319 kbps
Codec:             FLAC
================================================================================
No seeders - write personal message to M0p94ok. Any questions - support@pro-jazz.com.
Нет сидеров - пишите в личку M0p94ok. Есть вопросы - support@pro-jazz.com
14:30
45
Нет комментариев. Ваш будет первым!