Вы используете незарегистрированную версию компонента "Вкладки"!

Поиск

2021 Ballaké Sissoko - Djourou {Nø Førmat!} [24-44.1]

2021 Ballaké Sissoko - Djourou {Nø Førmat!} [24-44.1]
Дата издания диска:
9 апреля 2021
Издатель (лейбл):
Битрейт аудио:
lossless
Доп. инфо:

Формат записи/Источник записи: [TR24][OF]
Наличие водяных знаков: Нет
Год издания/переиздания диска: 2021
Издатель (лейбл): Nø Førmat!
Продолжительность: 00:46:51
Наличие сканов в содержимом раздачи: Только обложка альбома
Источник (релизер): qobuz

Контейнер: FLAC (*.flac)
Тип рипа: tracks
Разрядность: 24/44,1
Формат: PCM
Количество каналов: 2.0

Лог проверки качества
foobar2000 1.6 / Dynamic Range Meter 1.1.1
log date: 2021-04-09 13:09:53

--------------------------------------------------------------------------------
Analyzed: Ballaké Sissoko / Djourou
--------------------------------------------------------------------------------

DR         Peak         RMS     Duration Track
--------------------------------------------------------------------------------
DR10      -0.47 dB   -13.25 dB      3:49 01-Demba Kunda
DR10      -0.33 dB   -12.87 dB      4:50 02-Djourou
DR9       -0.33 dB   -12.11 dB      3:38 03-Jeu sur la symphonie fantastique
DR10      -0.33 dB   -12.29 dB      5:32 04-Guelen
DR10      -0.33 dB   -13.79 dB      4:23 05-Kora
DR11      -1.06 dB   -14.53 dB      6:14 06-Mande Tabolo
DR10      -0.33 dB   -12.90 dB      4:48 07-Frotter les mains
DR11      -0.33 dB   -13.22 dB      4:15 08-Kadidja
DR9       -0.33 dB   -12.14 dB      9:21 09-Un vêtement pour la lune
--------------------------------------------------------------------------------

Number of tracks:  9
Official DR value: DR10

Samplerate:        44100 Hz
Channels:          2
Bits per sample:   24
Bitrate:           1528 kbps
Codec:             FLAC
================================================================================
Any questions - support@pro-jazz.com. Есть вопросы - support@pro-jazz.com
19:22
92
Нет комментариев. Ваш будет первым!