Поиск

2021 Thomas Stronen, Ayumi Tanaka, Marthe Lea - Bayou {ECM} [24-96]

2021 Thomas Stronen, Ayumi Tanaka, Marthe Lea - Bayou {ECM} [24-96]
Дата издания диска:
9 апреля 2021
Издатель (лейбл):
Битрейт аудио:
lossless
Доп. инфо:

Формат записи/Источник записи: [TR24][OF]
Наличие водяных знаков: Нет
Год издания: 2021
Продолжительность: 00:41:57
Наличие сканов в содержимом раздачи: Буклет PDF
Контейнер: FLAC (*.flac)
Тип рипа: tracks
Разрядность: 24/96
Формат: PCM
Количество каналов: 2.0
Источник (релизер): highresaudio.com

Лог проверки качества
foobar2000 1.4.8 / Dynamic Range Meter 1.1.1
log date: 2021-04-10 08:46:03

--------------------------------------------------------------------------------
Analyzed: Thomas Strønen, Ayumi Tanaka, Marthe Lea / Bayou
--------------------------------------------------------------------------------

DR         Peak         RMS     Duration Track
--------------------------------------------------------------------------------
DR12      -8.97 dB   -27.20 dB      5:39 01-Bayou
DR14      -6.05 dB   -25.32 dB      6:28 02-Pasha
DR12      -5.22 dB   -22.99 dB      3:37 03-Duryea
DR15     -10.33 dB   -32.18 dB      3:44 04-Nahla
DR14      -6.00 dB   -27.53 dB      4:04 05-Varsha
DR14      -5.35 dB   -24.30 dB      4:27 06-Eyre
DR11     -13.57 dB   -30.66 dB      4:15 07-Dwyn
DR8      -20.08 dB   -34.73 dB      1:02 08-Bayou II
DR14      -7.24 dB   -29.05 dB      3:03 09-Como
DR19      -0.65 dB   -27.98 dB      5:41 10-Chantara
--------------------------------------------------------------------------------

Number of tracks:  10
Official DR value: DR13
Samplerate:        96000 Hz
Channels:          2
Bits per sample:   24
Bitrate:           2258 kbps
Codec:             FLAC
================================================================================
No seeders - write personal message to M0p94ok. Any questions - support@pro-jazz.com.
Нет сидеров - пишите в личку M0p94ok. Есть вопросы - support@pro-jazz.com
13:15
66
Нет комментариев. Ваш будет первым!