Поиск

2021 Sinikka Langeland - Wolf Rune {ECM} [24-96]

2021 Sinikka Langeland - Wolf Rune {ECM} [24-96]
Издатель (лейбл):
Битрейт аудио:
lossless
Доп. инфо:

Формат записи/Источник записи: [TR24][OF]
Наличие водяных знаков: Нет
Год издания: 2021
Продолжительность: 00:42:02
Наличие сканов в содержимом раздачи: Буклет PDF
Контейнер: FLAC (*.flac)
Тип рипа: tracks
Разрядность: 24/96
Формат: PCM
Количество каналов: 2.0
Источник (релизер): highresaudio.com

Лог проверки качества
foobar2000 1.4.8 / Dynamic Range Meter 1.1.1
log date: 2021-04-10 08:25:41

--------------------------------------------------------------------------------
Analyzed: Sinikka Langeland / Wolf Rune
--------------------------------------------------------------------------------

DR         Peak         RMS     Duration Track
--------------------------------------------------------------------------------
DR11     -12.19 dB   -27.10 dB      2:08 01-Moose Rune
DR11     -11.18 dB   -25.32 dB      3:05 02-Polsdance from Finnskogen
DR11      -7.58 dB   -23.29 dB      4:29 03-Row My Ocean
DR16     -19.20 dB   -40.92 dB      0:50 04-Kantele Prayer I
DR12      -6.62 dB   -23.30 dB      3:37 05-The Eye Of The Blue Whale
DR13      -7.19 dB   -24.39 dB      7:04 06-When I Was The Forest
DR13     -13.22 dB   -32.09 dB      0:55 07-Kantele Prayer II
DR15      -2.24 dB   -24.47 dB      6:38 08-Winter Rune
DR12     -11.22 dB   -28.20 dB      3:36 09-Don't Come To Me With The Entire Truth
DR12      -9.20 dB   -24.84 dB      2:44 10-The Girl In The Headlands
DR14     -10.71 dB   -34.15 dB      2:08 11-I See Your Light
DR14      -6.44 dB   -24.79 dB      4:56 12-Wolf Rune
--------------------------------------------------------------------------------

Number of tracks:  12
Official DR value: DR13
Samplerate:        96000 Hz
Channels:          2
Bits per sample:   24
Bitrate:           2369 kbps
Codec:             FLAC
================================================================================
No seeders - write personal message to M0p94ok. Any questions - support@pro-jazz.com.
Нет сидеров - пишите в личку M0p94ok. Есть вопросы - support@pro-jazz.com
17:37
50
Нет комментариев. Ваш будет первым!