Поиск

2021 Nicki Parrott - If You Could Read My Mind {Arbors} [24-88,2]

2021 Nicki Parrott - If You Could Read My Mind {Arbors} [24-88,2]
Стили:
Издатель (лейбл):
Битрейт аудио:
lossless
Доп. инфо:

Формат записи/Источник записи: [TR24][OF]
Наличие водяных знаков: Нет
Год издания: 2021
Продолжительность: 00:55:29
Наличие сканов в содержимом раздачи: Только обложка альбома
Контейнер: FLAC (*.flac)
Тип рипа: tracks
Разрядность: 24/88.2
Формат: PCM
Количество каналов: 2.0
Источник (релизер): qobuz.com

Лог проверки качества
foobar2000 1.6 / Dynamic Range Meter 1.1.1
log date: 2021-04-09 13:13:30

--------------------------------------------------------------------------------
Analyzed: Nicki Parrott / If You Could Read My Mind
--------------------------------------------------------------------------------

DR Peak RMS Duration Track
--------------------------------------------------------------------------------
DR9 -0.40 dB -11.15 dB 5:48 01-I Can See Clearly Now
DR9 -0.40 dB -12.47 dB 4:19 02-Jolene
DR10 -0.40 dB -13.29 dB 4:42 03-If You Could Read My Mind
DR10 -0.40 dB -13.82 dB 4:37 04-Vincent
DR10 -0.40 dB -12.62 dB 4:33 05-Every Breath You Take
DR9 -0.40 dB -12.47 dB 4:56 06-The First Time Ever I Saw Your Face
DR8 -0.40 dB -10.70 dB 4:31 07-You Belong To Me
DR9 -0.40 dB -12.32 dB 4:04 08-We've Only Just Begun
DR11 -0.40 dB -13.08 dB 4:54 09-This Girl's In Love With You
DR9 -0.40 dB -11.89 dB 4:42 10-Do That To Me One More Time
DR9 -0.40 dB -11.49 dB 4:17 11-Lean On Me
DR9 -0.40 dB -12.49 dB 4:12 12-The Water Is Wide
--------------------------------------------------------------------------------

Number of tracks: 12
Official DR value: DR9
Samplerate: 88200 Hz
Channels: 2
Bits per sample: 24
Bitrate: 2193 kbps
Codec: FLAC
================================================================================
No seeders - write personal message to M0p94ok. Any questions - support@pro-jazz.com.
Нет сидеров - пишите в личку M0p94ok. Есть вопросы - support@pro-jazz.com
17:15
61
Нет комментариев. Ваш будет первым!