Поиск

2020 Massimo Farao Trio - French Love Songs {Venus} [DSD64 ISO]

2020 Massimo Farao Trio - French Love Songs {Venus} [DSD64 ISO]
Дата записи диска:
11 августа - 12 августа 2018
Место записи:
Riverside Studio, Torino, Italy
Дата издания диска:
19 февраля 2020
Издатель (лейбл):
Номер по каталогу:
VHGD-357
Битрейт аудио:
lossless
Доп. инфо:

Формат записи/Источник записи: [SACD-R][OF]
Наличие водяных знаков: Нет
Год издания диска: 2020
Продолжительность: 00:54:39
Наличие сканов в содержимом раздачи: Только обложка альбома
Контейнер: ISO (*.iso)
Тип рипа: image
Разрядность: 64(2,8 MHz/1 Bit)
Формат: DSD
Количество каналов: 2.0

Доп. информация: venusrecords
Источник (релизер): jazzy pic

Лог проверки качества
foobar2000 1.6.4 / Dynamic Range Meter 1.1.1
log date: 2021-04-09 18:30:54

--------------------------------------------------------------------------------
Analyzed: Massimo Faraò Trio / French Love Songs
--------------------------------------------------------------------------------

DR         Peak         RMS     Duration Track
--------------------------------------------------------------------------------
DR8       -5.15 dB   -14.90 dB      5:03 01-À Paris
DR12      -6.86 dB   -21.68 dB      7:38 02-Hymne À L'Amour
DR10      -5.64 dB   -18.87 dB      6:54 03-La Vie En Rose
DR10      -6.85 dB   -20.17 dB      5:30 04-Ne Me Quitte Pas
DR10      -6.14 dB   -18.93 dB      6:57 05-Que Reste-t-il De Nos Amours
DR9       -5.96 dB   -17.89 dB      4:36 06-Sous Le Ciel De Paris
DR9       -5.37 dB   -16.10 dB      4:55 07-La Mer
DR11      -7.11 dB   -21.14 dB      4:06 08-Les Feuilles Mortes
DR11      -5.79 dB   -20.04 dB      4:30 09-La Vie En Rose
DR11      -5.38 dB   -19.66 dB      4:28 10-Que Roste-t-il De Nos Amours
--------------------------------------------------------------------------------

Number of tracks:  10
Official DR value: DR10

Samplerate:        2822400 Hz / PCM Samplerate: 88200 Hz
Channels:          2
Bits per sample:   1
Bitrate:           5645 kbps
Codec:             DSD64
================================================================================
No seeders - write personal message to M0p94ok. Any questions - support@pro-jazz.com.
Нет сидеров - пишите в личку M0p94ok. Есть вопросы - support@pro-jazz.com
16:40
39
Нет комментариев. Ваш будет первым!