Поиск

2011 Cinque - Catch a Corner {Alma} [24-96]

2011 Cinque - Catch a Corner {Alma} [24-96]
Место записи:
The Drive Shed, Toronto, Ontario, Canada
Дата издания диска:
30 августа 2011
Дата переиздания диска:
22 января 2021
Битрейт аудио:
lossless
Доп. инфо:

В "Catch A Corner" группы "Cinque" (произносится "Cheen-kwe") представлены известные джазовые и R & B / фанк-музыканты - Стив Гэдд на барабанах, Джои ДеФранческо на органе Hammond B3, Питер Кардинали на басу, Роби Ботос на фортепиано и Fender Rhodes, а также Джонни Джонсон на тенорном, альтовом, сопрано и баритон-саксофоне. Первый релиз группы охватывает широкий музыкальный ландшафт - от томного B3 трио-джаза до грязного фанка и R&B.

«Привлекательность Catch A Corner заключается в способности этих пяти музыкантов находить свежесть в некоторых очень простых и знакомо звучащих материалах. Они добились огромного успеха в этом отношении; игра здесь превосходна и вдохновлена повсюду. Хотя некоторые из них Музыка может показаться кому-то слишком мягкой и непринужденной. Те, кто любит обтягивающий джаз-фанк 70-х и органный джаз 60-х, найдут Catch A Corner настоящей сокровищницей ». (AllAboutJazz)

Лог проверки качества
foobar2000 1.4.3 / Dynamic Range Meter 1.1.1
log date: 2021-04-08 20:44:37

--------------------------------------------------------------------------------
Analyzed: Cinque / Catch a Corner
--------------------------------------------------------------------------------

DR         Peak         RMS     Duration Track
--------------------------------------------------------------------------------
DR10      -0.11 dB   -11.55 dB      5:59 01-Conflicting Advice
DR12      -0.11 dB   -13.27 dB      6:24 02-Geppetto's Blues
DR12      -0.11 dB   -14.15 dB      9:25 03-Saturday Night, Sunday Morning
DR12      -0.47 dB   -14.97 dB      7:01 04-Two Worlds
DR12      -0.24 dB   -13.35 dB      5:10 05-Catch a Corner
DR11      -0.11 dB   -13.54 dB      6:34 06-Over the Humpty Dump
DR11      -0.35 dB   -12.65 dB      4:38 07-Bolivia
DR12      -0.11 dB   -14.49 dB      6:29 08-Still Crazy After All These Years
--------------------------------------------------------------------------------

Number of tracks:  8
Official DR value: DR11

Samplerate:        96000 Hz
Channels:          2
Bits per sample:   24
Bitrate:           2641 kbps
Codec:             FLAC
================================================================================
No seeders - write personal message to M0p94ok. Any questions - support@pro-jazz.com.
Нет сидеров - пишите в личку M0p94ok. Есть вопросы - support@pro-jazz.com
10:59
45
Нет комментариев. Ваш будет первым!