Поиск

2021 Norah Jones - ...‘Til We Meet Again (Live) {Blue Note} [24-96]

2021 Norah Jones - ...‘Til We Meet Again (Live) {Blue Note} [24-96]
Стили:
Дата издания диска:
16 апреля 2021
Издатель (лейбл):
Битрейт аудио:
lossless
Доп. инфо:

Формат записи/Источник записи: [TR24][OF]
Наличие водяных знаков: Нет
Год издания: 2021
Продолжительность: 01:15:44
Наличие сканов в содержимом раздачи: Только обложка альбома
Контейнер: FLAC (*.flac)
Тип рипа: tracks
Разрядность: 24/96
Формат: PCM
Количество каналов: 2.0
Источник (релизер): highresaudio.com

Лог проверки качества
foobar2000 1.4.8 / Dynamic Range Meter 1.1.1
log date: 2021-04-16 18:10:59

--------------------------------------------------------------------------------
Analyzed: Norah Jones / ...‘Til We Meet Again - Live
--------------------------------------------------------------------------------

DR         Peak         RMS     Duration Track
--------------------------------------------------------------------------------
DR9       -0.20 dB   -11.11 dB      5:24 01-Cold, Cold Heart (Live)
DR7       -0.35 dB    -9.35 dB      5:38 02-It Was You (Live)
DR8       -0.20 dB   -10.64 dB      4:17 03-Begin Again (Live)
DR9       -0.20 dB   -10.89 dB      3:50 04-Those Sweet Words (Live)
DR8       -0.20 dB   -11.15 dB      7:33 05-I've Got To See You Again (Live)
DR8       -0.20 dB   -10.35 dB      5:33 06-After The Fall (Live)
DR7       -0.35 dB    -9.86 dB      4:48 07-I'll Be Gone (Live)
DR7       -0.35 dB    -9.87 dB      5:30 08-Just A Little Bit (Live)
DR9       -0.20 dB   -11.88 dB      4:36 09-Falling (Live)
DR8       -0.20 dB   -10.19 dB      5:04 10-Tragedy (Live)
DR8       -0.20 dB   -10.25 dB      4:32 11-Sunrise (Live)
DR8       -0.20 dB    -9.89 dB      6:48 12-Flipside (Live)
DR7       -0.20 dB    -9.35 dB      5:06 13-Don't Know Why (Live)
DR9       -0.35 dB   -11.62 dB      7:11 14-Black Hole Sun (Live)
--------------------------------------------------------------------------------

Number of tracks:  14
Official DR value: DR8
Samplerate:        96000 Hz
Channels:          2
Bits per sample:   24
Bitrate:           2770 kbps
Codec:             FLAC
================================================================================
No seeders - write personal message to M0p94ok. Any questions - support@pro-jazz.com.
Нет сидеров - пишите в личку M0p94ok. Есть вопросы - support@pro-jazz.com
13:43
22
Нет комментариев. Ваш будет первым!