Поиск

2021 Melody Gardot - Sunset In The Blue (Deluxe Version) {Decca, UMO} [24-96]

2021 Melody Gardot - Sunset In The Blue (Deluxe Version) {Decca, UMO} [24-96]
Стили:
Дата издания диска:
16 апреля 2021
Издатель (лейбл):
Битрейт аудио:
lossless
Доп. инфо:

Формат записи/Источник записи: [TR24][OF]
Наличие водяных знаков: Нет
Год издания: 2021
Продолжительность: 01:18:40
Наличие сканов в содержимом раздачи: Только обложка альбома
Контейнер: FLAC (*.flac)
Тип рипа: tracks
Разрядность: 24/96
Формат: PCM
Количество каналов: 2.0

Источник (релизер): pic

Лог проверки качества
foobar2000 1.4.8 / Dynamic Range Meter 1.1.1
log date: 2021-04-16 18:35:05

--------------------------------------------------------------------------------
Analyzed: Melody Gardot / Sunset In The Blue (Deluxe Version)
--------------------------------------------------------------------------------

DR         Peak         RMS     Duration Track
--------------------------------------------------------------------------------
DR10      -0.80 dB   -13.90 dB      4:36 01-If You Love Me
DR8       -0.80 dB   -11.73 dB      4:53 02-C’est Magnifique
DR9       -0.80 dB   -12.61 dB      5:49 03-There Where He Lives In Me
DR10      -0.80 dB   -14.04 dB      3:58 04-Love Song
DR10      -0.80 dB   -13.66 dB      6:05 05-You Won't Forget Me
DR11      -1.35 dB   -14.70 dB      4:33 06-Sunset In The Blue
DR9       -0.80 dB   -11.98 dB      4:06 07-Um Beijo
DR8       -0.80 dB   -10.04 dB      3:38 08-Ninguém, Ninguém
DR9       -0.80 dB   -12.27 dB      4:47 09-From Paris With Love (Single Version)
DR9       -0.80 dB   -12.51 dB      4:28 10-Ave Maria
DR10      -1.01 dB   -14.42 dB      3:48 11-Moon River
DR11      -2.71 dB   -17.00 dB      3:10 12-I Fall In Love Too Easily
DR8       -1.45 dB   -13.03 dB      2:42 13-Little Something
DR8       -0.48 dB   -11.60 dB      4:22 14-From Paris With Love (Acoustic)
DR9       -0.30 dB   -12.36 dB      5:26 15-Love Song
DR11      -0.30 dB   -15.11 dB      4:07 16-Trav'lin' Light
DR10      -0.30 dB   -13.07 dB      3:27 17-What Is This Thing Called Love
DR10      -0.20 dB   -11.74 dB      4:55 18-C'est Magnifique (Live In Namouche Studios)
--------------------------------------------------------------------------------

Number of tracks:  18
Official DR value: DR9
Samplerate:        96000 Hz
Channels:          2
Bits per sample:   24
Bitrate:           2980 kbps
Codec:             FLAC
================================================================================
No seeders - write personal message to M0p94ok. Any questions - support@pro-jazz.com.
Нет сидеров - пишите в личку M0p94ok. Есть вопросы - support@pro-jazz.com
14:16
14
Нет комментариев. Ваш будет первым!