Поиск

1986 Buddy Rich - Just in Time: The Final Recording (2019) {Gearbox} [24-96]

1986 Buddy Rich - Just in Time: The Final Recording (2019) {Gearbox} [24-96]
Стили:
Треклист:

01. Wind Machine (Nestico) - 3:22
02. Night Blood (Cunliffe) - 3:59
03. Ready Mix (Holman) - 3:28
04. The Trolley Song (Martin-Blane) - 4:20
05. Winding Way (Harris) - 7:01
06. Harco Shuffle (Harris) - 6:25
07. Just in Time (Styne) - 5:21
08. Loose (Holman) - 3:56
09. Love for Sale (Porter) - 4:19
10. Shawnee (Barone) - 3:48
11. Up Jumped Spring (Hubbard) - 3:27
12. Why Bother? (Harris) - 4:40
13. Porgy and Bess (Gershwin) - 10:31
14. Twisted (feat. Cathy Rich) (Ross) - 6:41
15. Good News, Part 1 (feat. Steve Marcus) (Mintzer) - 15:07
16. Good News, Part 2 (feat. Steve Marcus) (Mintzer) - 16:20

Доп. инфо:

Формат записи/Источник записи: [TR24][OF]
Наличие водяных знаков: Нет
Год издания/переиздания диска: 2019
Издатель (лейбл): Gearbox Records
Продолжительность: 01:42:45
Наличие сканов в содержимом раздачи: Только обложка альбома

Контейнер: FLAC (*.flac)
Тип рипа: tracks
Разрядность: 24/96
Формат: WAV (flac.ape.wv)
Количество каналов: 2.0

Источник (релизер): redacted <-- qobuz

Лог проверки качества
foobar2000 1.5.1 / Dynamic Range Meter 1.1.1
log date: 2020-01-27 01:36:22

--------------------------------------------------------------------------------
Analyzed: Buddy Rich / Just in Time: The Final Recording
--------------------------------------------------------------------------------

DR         Peak         RMS     Duration Track
--------------------------------------------------------------------------------
DR13      -0.97 dB   -16.16 dB      3:22 01-Wind Machine
DR12      -0.84 dB   -14.40 dB      3:59 02-Night Blood
DR12      -0.85 dB   -15.24 dB      3:28 03-Ready Mix
DR12      -0.84 dB   -14.56 dB      4:20 04-The Trolley Song
DR14      -0.85 dB   -15.78 dB      7:01 05-Winding Way
DR15      -0.84 dB   -18.79 dB      6:25 06-Harco Shuffle
DR13      -0.84 dB   -16.32 dB      5:21 07-Just in Time
DR15      -2.33 dB   -21.46 dB      3:56 08-Loose
DR14      -0.86 dB   -16.88 dB      4:19 09-Love for Sale
DR12      -0.85 dB   -15.49 dB      3:48 10-Shawnee
DR13      -0.84 dB   -15.15 dB      3:27 11-Up Jumped Spring
DR14      -0.86 dB   -17.16 dB      4:40 12-Why Bother?
DR13      -0.84 dB   -16.44 dB     10:31 13-Porgy and Bess
DR13      -0.81 dB   -17.49 dB      6:41 14-Twisted (feat. Cathy Rich)
DR11      -0.82 dB   -14.92 dB     15:07 15-Good News, Part 1 (feat. Steve Marcus)
DR14      -0.81 dB   -19.47 dB     16:20 16-Good News, Part 2 (feat. Steve Marcus)
--------------------------------------------------------------------------------

Number of tracks:  16
Official DR value: DR13

Samplerate:        96000 Hz
Channels:          2
Bits per sample:   24
Bitrate:           2801 kbps
Codec:             FLAC
================================================================================
Приватный:
Нет (DHT включён)
Размер:
2.06 Гб (2,215,287,748 байт) » файлов: 20
Участники:
0 раздают, 0 качают (0 участников всего)
Внешние участники:
5 раздают, 2 качают (7 участников всего) [ Обновить ]
Скорость:
0/c 23.00 байт/c
Есть вопросы - пишите личное сообщение пользователю M0p94ok.
22:02
29
Нет комментариев. Ваш будет первым!