Поиск

2018 Sophie Agnel, John Edwards, Steve Noble - Aqisseq {ONJ JF010} [24-44,1]

2018 Sophie Agnel, John Edwards, Steve Noble - Aqisseq {ONJ JF010} [24-44,1]
Дата издания диска:
7 декабря 2018
Номер по каталогу:
JF010
Носитель:
WEB
Формат:
PCM
Тип рипа:
tracks
Контейнер:
FLAC (*.flac)
Количество каналов:
2.0
Разрядность/ЧД:
24/44,1
Формат записи/Источник записи:
[TR24][OF]
Время звучания:
00:36:52
Наличие сканов:
буклет pdf
Наличие водяных знаков:
нет
Страна-производитель диска (релиза):
France
Релизёр (источник):
M0p94ok
Треклист:

1    Aqissit    17:48
2    Aqissiaq    17:05
3    Aqisseq    1:58

Recorded ... Brighton Alternative Jazz Festival, 09.2016, except track 03 Aqisseq Konfrontationen Festival, Nickelsdorf 07.2016
Mixed and mastered 09.2018

Лог проверки качества
foobar2000 1.4.3 / Dynamic Range Meter 1.1.1
log date: 2020-03-06 21:18:00

--------------------------------------------------------------------------------
Analyzed: Sophie Agnel / John Edwards / Steve Noble / Aqisseq
--------------------------------------------------------------------------------

DR         Peak         RMS     Duration Track
--------------------------------------------------------------------------------
DR14       0.00 dB   -18.03 dB     17:49 01-Aqissit
DR18       0.00 dB   -22.91 dB     17:06 02-Aqissiaq
DR22      -0.08 dB   -27.32 dB      2:00 03-Aqisseq
--------------------------------------------------------------------------------

Number of tracks:  3
Official DR value: DR18

Samplerate:        44100 Hz
Channels:          2
Bits per sample:   24
Bitrate:           1289 kbps
Codec:             FLAC
================================================================================
Приватный:
Нет (DHT включён)
Размер:
181.00 Мб (189,792,338 байт) » файлов: 6
Участники:
3 раздают, 0 качают (3 участников всего)
Внешние участники:
--- [ Обновить ]
Есть вопросы - пишите личное сообщение пользователю M0p94ok.
21:34
23
Нет комментариев. Ваш будет первым!