Поиск

2020 Misia - Misia Soul Jazz Best {Sony} [24-44,1]

2020 Misia - Misia Soul Jazz Best {Sony} [24-44,1]
Стили:
Издатель (лейбл):
Треклист:

◈ 01 - Everything (00:07:17)
◈ 02 - CASSA LATTE (00:03:26)
◈ 03 - KURUZO Thrilling (feat. Raul Midon) (00:04:48)
◈ 04 - Mysterious Love (feat. MIYACHI) (00:04:18)
◈ 05 - Kawariyuku Konomachide (00:03:40)
◈ 06 - Believe (00:04:48)
◈ 07 - Tears of orphans (feat. Marcus Miller) (00:05:58)
◈ 08 - Kiss Shite Dakishimete (00:05:11)
◈ 09 - MIDNIGHT HIDE-AND-SEEK (00:04:31)
◈ 10 - LADY FUNKY (00:04:40)
◈ 11 - Place In the SUN (00:05:05)
◈ 12 - Anata to Anata (feat. Tsuyoshi Domoto) (00:03:26)
◈ 13 - Tsutsumi Komu Youni... (00:04:06)
◈ 14 - Anatani Smile (00:04:07)
◈ 15 - Love is a knife (00:05:08)
◈ 16 - Ainokatachi (00:04:46)

Доп. инфо:

• Формат записи | Источник записи: [TR24][OF]
• Наличие водяных знаков: Нет
• Страна: Japan
• Год издания релиза: 2020
• Продолжительность: 01:15:24
• Источник: internet
• WEB релиз: ссылка
• Контейнер: FLAC (*.flac)
• Тип рипа: tracks
• Разрядность: 24/44,1
• Формат: WAV (flac.ape.wv)
• Количество каналов: 2.0
• Наличие сканов: front
 

Лог проверки качества
foobar2000 1.4.2 / Dynamic Range Meter 1.1.1
log date: 2020-01-26 20:49:56

--------------------------------------------------------------------------------
Analyzed: Misia / Misia Soul Jazz Best
--------------------------------------------------------------------------------

DR         Peak         RMS     Duration Track
--------------------------------------------------------------------------------
DR8       -0.33 dB   -10.39 dB      7:17 01-Everything
DR7       -0.33 dB    -8.60 dB      3:26 02-CASSA LATTE
DR7       -0.43 dB    -8.78 dB      4:49 03-KURUZO Thrilling (feat. Raul Midon)
DR7       -0.33 dB    -9.02 dB      4:18 04-Mysterious Love (feat. MIYACHI)
DR7       -0.33 dB    -8.91 dB      3:41 05-Kawariyuku Konomachide
DR7       -0.42 dB    -9.21 dB      4:49 06-Believe
DR7       -0.33 dB    -9.25 dB      5:58 07-Tears of orphans (feat. Marcus Miller)
DR8       -0.33 dB    -9.29 dB      5:12 08-Kiss Shite Dakishimete
DR6       -0.52 dB    -8.39 dB      4:31 09-MIDNIGHT HIDE-AND-SEEK
DR7       -0.33 dB    -8.01 dB      4:41 10-LADY FUNKY
DR7       -0.33 dB    -8.76 dB      5:06 11-Place In the SUN
DR8       -0.33 dB    -9.92 dB      3:27 12-Anata to Anata (feat. Tsuyoshi Domoto)
DR8       -0.33 dB    -9.50 dB      4:07 13-Tsutsumi Komu Youni...
DR7       -0.33 dB    -8.68 dB      4:07 14-Anatani Smile
DR8       -0.33 dB   -10.56 dB      5:09 15-Love is a knife
DR8       -0.33 dB   -10.81 dB      4:46 16-Ainokatachi
--------------------------------------------------------------------------------

Number of tracks:  16
Official DR value: DR7

Samplerate:        44100 Hz
Channels:          2
Bits per sample:   24
Bitrate:           2120 kbps
Codec:             FLAC
================================================================================
Приватный:
Нет (DHT включён)
Размер:
1.12 Гб (1,201,735,071 байт) » файлов: 17
Участники:
0 раздают, 0 качают (0 участников всего)
Внешние участники:
3 раздают, 1 качают (4 участников всего) [ Обновить ]
No seeders - write a personal message to user M0p94ok. Нет сидеров - пишите личное сообщение пользователю M0p94ok.
14:29
56
Нет комментариев. Ваш будет первым!