Поиск

2020 Naclia - La légende (legende) de Naclia {jazz family} [24-48]

2020 Naclia - La légende (legende) de Naclia {jazz family} [24-48]
Стили:
Треклист:

◈ 01 - Licana (00:05:16)
◈ 02 - Ialnac (00:01:33)
◈ 03 - Iacina (00:04:47)
◈ 04 - Canila (00:02:01)
◈ 05 - Aclani (00:04:32)
◈ 06 - Calani (00:01:36)
◈ 07 - Clania (00:03:59)
◈ 08 - Inalca (00:02:03)
◈ 09 - Alcina (00:03:47)
◈ 10 - Naclia, Pt. 1 (00:00:52)
◈ 11 - Naclia, Pt. 2 (00:05:26)
◈ 12 - Nacali (00:03:23)
◈ 13 - La legende de Naclia (00:00:54)

Доп. инфо:

• Формат записи | Источник записи: [TR24][OF]
• Наличие водяных знаков: Нет
• Год издания релиза: 2020
• Жанр: Jazz
• Лейбл: jazz family
• Продолжительность: 00:40:17
• Источник: internet
• WEB релиз: ссылка
• Контейнер: FLAC (*.flac)
• Тип рипа: tracks
• Разрядность: 24/48
• Формат: WAV (flac.ape.wv)
• Количество каналов: 2.0
• Наличие сканов: front

Лог проверки качества
foobar2000 1.4.2 / Dynamic Range Meter 1.1.1
log date: 2020-01-26 20:11:30

--------------------------------------------------------------------------------
Analyzed: Naclia / La légende de Naclia
--------------------------------------------------------------------------------

DR         Peak         RMS     Duration Track
--------------------------------------------------------------------------------
DR7       -0.10 dB    -9.53 dB      5:16 01-Licana
DR9       -0.10 dB   -11.16 dB      1:34 02-Ialnac
DR8       -0.10 dB   -10.29 dB      4:48 03-Iacina
DR8       -3.04 dB   -14.98 dB      2:02 04-Canila
DR9       -0.10 dB   -10.57 dB      4:32 05-Aclani
DR8       -2.46 dB   -13.84 dB      1:36 06-Calani
DR8       -0.10 dB   -11.51 dB      3:59 07-Clania
DR9       -0.31 dB   -13.84 dB      2:04 08-Inalca
DR7       -0.10 dB    -9.90 dB      3:47 09-Alcina
DR10      -0.10 dB   -12.93 dB      0:53 10-Naclia, Pt. 1
DR8       -0.10 dB   -11.42 dB      5:27 11-Naclia, Pt. 2
DR8       -0.10 dB   -10.36 dB      3:24 12-Nacali
DR11      -2.17 dB   -16.58 dB      0:55 13-La légende de Naclia
--------------------------------------------------------------------------------

Number of tracks:  13
Official DR value: DR8

Samplerate:        48000 Hz
Channels:          2
Bits per sample:   24
Bitrate:           1208 kbps
Codec:             FLAC
================================================================================
Приватный:
Нет (DHT включён)
Размер:
425.45 Мб (446,118,339 байт) » файлов: 14
Участники:
0 раздают, 0 качают (0 участников всего)
Внешние участники:
2 раздают, 1 качают (3 участников всего) [ Обновить ]
Есть вопросы - пишите личное сообщение пользователю M0p94ok.
12:39
21
Нет комментариев. Ваш будет первым!