Поиск

1957 Tito Puente - Dance Mania, Vol. 1 (2019) {RevOla} [24-44,1]

1957 Tito Puente - Dance Mania, Vol. 1 (2019) {RevOla} [24-44,1]
Стили:
Треклист:

01 - El Cayuco 02:37
02 - Complicacion 03:23
03 - 3-D Mambo 02:27
04 - Llego Mijan 03:14
05 - Cuando Te Vea 04:16
06 - Hong Kong Mambo 03:48
07 - Mambo Gozon 02:48
08 - Mi Chiquita Quiere Bembe 03:57
09 - Varsity Drag Mambo 02:52
10 - Estoy Siempre Junto A Ti 03:14
11 - Agua Limpia Todo 02:56
12 - Saca Tu Mujer 03:07
13 - El Cayuco (Outtake Version) 02:37
14 - Estoy Siempre Junto A Ti (Outtake Version) 02:44
15 - Mambozooka 02:51
16 - Havana After Dark 02:50
17 - Cual Es la Idea 03:20
18 - Tito Guajira 02:38
19 - Yambeque 03:46
20 - Son De La Loma 02:07
21 - Guaririambo 03:27
22 - Pa' Los Rumberos 03:21

Доп. инфо:

Формат записи/Источник записи: [TR24][OF]
Издание: Remastered
Год издания/переиздания диска: 1957/2019
Издатель (лейбл): RevOla
Продолжительность: 01:08:20
Наличие сканов в содержимом раздачи: Нет

Контейнер: FLAC (*.flac)
Тип рипа: tracks
Разрядность: 24/44,1
Количество каналов: 2.0

Источник (релизер): Qobuz

Лог проверки качества
foobar2000 1.4.3 / Dynamic Range Meter 1.1.1
log date: 2020-01-27 00:22:37

--------------------------------------------------------------------------------
Analyzed: Tito Puente And His Orchestra / Dance Mania! Vol 1 (Remastered)
--------------------------------------------------------------------------------

DR         Peak         RMS     Duration Track
--------------------------------------------------------------------------------
DR13      -1.64 dB   -17.21 dB      2:37 01-El Cayuco (Remastered)
DR11      -1.97 dB   -15.93 dB      3:24 02-Complicacion (Remastered)
DR12      -3.02 dB   -17.61 dB      2:27 03-3-D Mambo (Remastered)
DR12      -2.07 dB   -15.96 dB      3:14 04-Llego Mijan (Remastered)
DR12      -2.24 dB   -16.29 dB      4:16 05-Cuando Te Vea (Remastered)
DR12      -2.98 dB   -17.37 dB      3:48 06-Hong Kong Mambo (Remastered)
DR12      -2.42 dB   -16.92 dB      2:48 07-Mambo Gozon (Remastered)
DR12      -1.24 dB   -16.34 dB      3:57 08-Mi Chiquita Quiere Bembe (Remastered)
DR12      -3.28 dB   -17.46 dB      2:53 09-Varsity Drag Mambo (Remastered)
DR11      -2.91 dB   -16.58 dB      3:14 10-Estoy Siempre Junto A Ti (Remastered)
DR11      -3.48 dB   -16.06 dB      2:56 11-Agua Limpia Todo (Remastered)
DR11      -2.80 dB   -16.16 dB      3:08 12-Saca Tu Mujer (Remastered)
DR11      -2.28 dB   -16.07 dB      2:38 13-El Cayuco (Outtake Version Remastered)
DR10      -3.25 dB   -16.41 dB      2:44 14-Estoy Siempre Junto A Ti (Outtake Version Remastered)
DR9       -4.46 dB   -15.53 dB      2:51 15-Mambozooka (Remastered)
DR9       -4.45 dB   -15.88 dB      2:51 16-Havana After Dark (Remastered)
DR9       -3.36 dB   -13.66 dB      3:20 17-Cual Es la Idea (Remastered)
DR9       -6.64 dB   -18.62 dB      2:39 18-Tito Guajira (Remastered)
DR10      -4.67 dB   -15.58 dB      3:46 19-Yambeque (Remastered)
DR9       -4.95 dB   -16.33 dB      2:07 20-Son De La Loma (Remastered)
DR9       -3.98 dB   -14.42 dB      3:28 21-Guaririambo (Remastered)
DR9       -3.69 dB   -14.02 dB      3:22 22-Pa' Los Rumberos (Remastered)
--------------------------------------------------------------------------------

Number of tracks:  22
Official DR value: DR11

Samplerate:        44100 Hz
Channels:          2
Bits per sample:   24
Bitrate:           1142 kbps
Codec:             FLAC
================================================================================
Приватный:
Нет (DHT включён)
Размер:
698.00 Мб (731,901,871 байт) » файлов: 26
Участники:
0 раздают, 0 качают (0 участников всего)
Внешние участники:
5 раздают, 1 качают (6 участников всего) [ Обновить ]
Есть вопросы - пишите личное сообщение пользователю M0p94ok.
01:00
29
Нет комментариев. Ваш будет первым!