Поиск

2018 Thomas Markusson - Open {Footprint FR107} [24-44,1]

2018 Thomas Markusson - Open {Footprint FR107} [24-44,1]
Стили:
Дата записи диска:
18-20 января 2018
Место записи:
Haga Church, Göteborg
Номер по каталогу:
Footprint FR107
Носитель:
WEB
Формат:
PCM
Тип рипа:
tracks
Контейнер:
FLAC (*.flac)
Количество каналов:
2.0
Разрядность/ЧД:
24/44,1
Формат записи/Источник записи:
[TR24][OF]
Время звучания:
01:01:01
Наличие сканов:
буклет pdf
Наличие водяных знаков:
нет
Страна-производитель диска (релиза):
EU
Релизёр (источник):
M0p94ok
Треклист:

1. Ending   09:16
2. As It Is   13:21
3. Folke   12:05
4. Improvisation No. 3   02:46
5. Duo   08:50
6. Open   06:05
7. Into the Woods   08:36

Лог проверки качества
foobar2000 1.3.16 / Dynamic Range Meter 1.1.1
log date: 2018-12-07 03:04:38

--------------------------------------------------------------------------------
Analyzed: Thomas Markusson / Open
--------------------------------------------------------------------------------

DR         Peak         RMS     Duration Track
--------------------------------------------------------------------------------
DR14      -4.71 dB   -22.95 dB      9:16 01-Ending
DR13      -0.66 dB   -18.09 dB     13:22 02-As it is: As It Is
DR14      -0.71 dB   -18.74 dB     12:06 03-Folke
DR12     -18.03 dB   -37.65 dB      2:46 04-Improvisation No. 3
DR13      -5.86 dB   -24.49 dB      8:51 05-Duo
DR16      -2.63 dB   -22.92 dB      6:06 06-Open
DR13      -2.18 dB   -20.94 dB      8:36 07-Into the Woods
--------------------------------------------------------------------------------

Number of tracks:  7
Official DR value: DR14

Samplerate:        44100 Hz
Channels:          2
Bits per sample:   24
Bitrate:           1342 kbps
Codec:             FLAC
================================================================================
Приватный:
Нет (DHT включён)
Размер:
586.99 Мб (615,502,028 байт) » файлов: 11
Участники:
3 раздают, 0 качают (3 участников всего)
Внешние участники:
--- [ Обновить ]
Есть вопросы - пишите личное сообщение пользователю M0p94ok.
12:10
31
Нет комментариев. Ваш будет первым!