Поиск

1957 Tito Puente - Night Beat! (2019) {RevOla} [24-44,1]

1957 Tito Puente - Night Beat! (2019) {RevOla} [24-44,1]
Стили:
Треклист:

01. Night Beat (2:59)
02. Mambo Beat (4:11)
03. Sea Breeze (3:24)
04. Emerald Beach (3:33)
05. The Late, Late Scene (2:54)
06. Carioca (2:19)
07. Night Ritual (7:17)
08. Malibu Beat (2:30)
09. Flying Down To Rio (2:22)
10. Night Hawk (2:34)
11. Live A Little (2:52)

Доп. инфо:

Формат записи/Источник записи: [TR24][OF]
Наличие водяных знаков: Нет
Издание: Remastered
Год издания/переиздания диска: 1957/2019
Издатель (лейбл): RevOla
Продолжительность: 36:54
Наличие сканов в содержимом раздачи: Только обложка альбома

Контейнер: FLAC (*.flac)
Тип рипа: tracks
Разрядность: 24/44,1
Формат: PCM
Количество каналов: 2.0

Источник: qobuz.com

Лог проверки качества
foobar2000 1.3.9 / Dynamic Range Meter 1.1.1
log date: 2020-01-27 14:25:50

--------------------------------------------------------------------------------
Analyzed: Tito Puente / Night Beat!
--------------------------------------------------------------------------------

DR         Peak         RMS     Duration Track
--------------------------------------------------------------------------------
DR10      -1.90 dB   -14.05 dB      2:59 01-Night Beat
DR10      -1.49 dB   -15.80 dB      4:11 02-Mambo Beat
DR10      -1.88 dB   -14.45 dB      3:24 03-Sea Breeze
DR9       -1.96 dB   -12.95 dB      3:33 04-Emerald Beach
DR10      -1.05 dB   -14.62 dB      2:54 05-The Late, Late Scene
DR10      -2.71 dB   -15.92 dB      2:19 06-Carioca
DR10      -2.05 dB   -14.48 dB      7:17 07-Night Ritual
DR9       -1.61 dB   -13.50 dB      2:30 08-Malibu Beat
DR10      -1.48 dB   -13.79 dB      2:22 09-Flying Down To Rio
DR11      -0.15 dB   -14.21 dB      2:34 10-Night Hawk
DR9       -1.70 dB   -13.57 dB      2:52 11-Live A Little
--------------------------------------------------------------------------------

Number of tracks:  11
Official DR value: DR10

Samplerate:        44100 Hz
Channels:          2
Bits per sample:   24
Bitrate:           1543 kbps
Codec:             FLAC
================================================================================
Приватный:
Нет (DHT включён)
Размер:
409.87 Мб (429,783,522 байт) » файлов: 14
Участники:
0 раздают, 1 качают (1 участников всего)
Внешние участники:
--- [ Обновить ]
Скорость:
104.56 Кб/c 13.00 байт/c
Есть вопросы - пишите личное сообщение пользователю M0p94ok.
16:37
25
Нет комментариев. Ваш будет первым!