Поиск

1979 Tom Van Der Geld - Path (2019) {ECM 1134} [24-96]

1979 Tom Van Der Geld - Path (2019) {ECM 1134} [24-96]
Стили:
Издатель (лейбл):
Номер по каталогу:
1134
Носитель:
WEB
Формат:
PCM
Тип рипа:
tracks
Контейнер:
FLAC (*.flac)
Количество каналов:
2.0
Разрядность/ЧД:
24/96
Формат записи/Источник записи:
[TR24][OF]
Время звучания:
00:42:40
Наличие сканов:
только обложка
Наличие водяных знаков:
нет
Страна-производитель диска (релиза):
Germany
Релизёр (источник):
M0p94ok
Треклист:

1. One  10:56
2. Eevee  05:53
3. Joujou  04:10
4. Michi  11:29
5. Joys And Sorrows  10:12

Лог проверки качества
foobar2000 1.4.3 / Dynamic Range Meter 1.1.1
log date: 2020-03-07 19:04:47

--------------------------------------------------------------------------------
Analyzed: Tom van der Geld / Path
--------------------------------------------------------------------------------

DR         Peak         RMS     Duration Track
--------------------------------------------------------------------------------
DR11      -1.42 dB   -18.07 dB     10:57 01-One
DR11      -3.15 dB   -18.06 dB      5:54 02-Eevee
DR10      -4.16 dB   -18.60 dB      4:10 03-Joujou
DR13      -0.80 dB   -20.45 dB     11:29 04-Michi
DR12      -2.95 dB   -19.14 dB     10:13 05-Joys And Sorrows
--------------------------------------------------------------------------------

Number of tracks:  5
Official DR value: DR12

Samplerate:        96000 Hz
Channels:          2
Bits per sample:   24
Bitrate:           2617 kbps
Codec:             FLAC
================================================================================

Приватный:
Нет (DHT включён)
Размер:
805.06 Мб (844,171,757 байт) » файлов: 7
Участники:
4 раздают, 0 качают (4 участников всего)
Внешние участники:
--- [ Обновить ]
Есть вопросы - пишите личное сообщение пользователю M0p94ok.
19:48
29
Нет комментариев. Ваш будет первым!