Поиск

1994 Tito Puente And His Orchestra - El Timbal (2019) {RevOla} [24-44,1]

1994 Tito Puente And His Orchestra - El Timbal (2019) {RevOla} [24-44,1]
Стили:
Треклист:

01. Mambo La Roca (2:37)
02. Lo Dicen Todos (3:19)
03. Babaratiri (3:04)
04. A Burujon Punao (3:14)
05. Babalagua (2:52)
06. Mambo Macoco (2:57)
07. Mambolero (2:52)
08. Cuban Mambo (3:09)
09. Cuban Cutie (2:57)
10. Mi Guaguanco (2:49)
11. El Timbal (3:07)
12. Abaniquito (2:49)
13. Baila Simon (3:02)
14. Quiero Mi Tambo (3:04)
15. Mambo En Blues (3:17)
16. Ta Bueno Pa Bailar (2:47)
17. Aprieta El Pollo (3:19)
18. Guaguanco En Tropicana (3:31)
19. Cuero Na 'Ma (3:06)
20. Preparen Candela (2:55)
21. Baile Mi Mambo (3:06)
22. Nuevo Mambo (2:40)
23. Pito Joe (2:36)
24. Plaza Stomp (2:54)
25. Donkey Serenade (3:16)

Доп. инфо:

Формат записи/Источник записи: [TR24][OF]
Наличие водяных знаков: Нет
Издание: Remastered
Год издания/переиздания диска: 1994/2019
Издатель (лейбл): RevOla
Продолжительность: 01:15:19
Наличие сканов в содержимом раздачи: Только обложка альбома

Контейнер: FLAC (*.flac)
Тип рипа: tracks
Разрядность: 24/44,1
Формат: PCM
Количество каналов: 2.0

Источник: qobuz.com

Лог проверки качества
foobar2000 1.3.9 / Dynamic Range Meter 1.1.1
log date: 2020-01-27 15:15:11

--------------------------------------------------------------------------------
Analyzed: Tito Puente And His Orchestra / El Timbal
--------------------------------------------------------------------------------

DR         Peak         RMS     Duration Track
--------------------------------------------------------------------------------
DR15      -2.73 dB   -23.66 dB      2:37 01-Mambo La Roca
DR15      -4.60 dB   -22.91 dB      3:19 02-Lo Dicen Todos
DR15      -7.51 dB   -25.68 dB      3:04 03-Babaratiri
DR14      -4.27 dB   -22.01 dB      3:14 04-A Burujon Punao
DR14      -5.36 dB   -22.53 dB      2:52 05-Babalagua
DR13      -4.45 dB   -21.46 dB      2:57 06-Mambo Macoco
DR14      -5.29 dB   -24.22 dB      2:52 07-Mambolero
DR14      -5.14 dB   -23.63 dB      3:09 08-Cuban Mambo
DR13      -7.85 dB   -25.41 dB      2:57 09-Cuban Cutie
DR13      -4.92 dB   -23.07 dB      2:49 10-Mi Guaguanco
DR14      -4.73 dB   -21.06 dB      3:07 11-El Timbal
DR14      -5.72 dB   -21.97 dB      2:49 12-Abaniquito
DR14      -6.76 dB   -23.76 dB      3:02 13-Baila Simon
DR14      -6.62 dB   -23.74 dB      3:04 14-Quiero Mi Tambo
DR13      -7.92 dB   -23.95 dB      3:17 15-Mambo En Blues
DR15      -5.84 dB   -24.35 dB      2:47 16-Ta Bueno Pa Bailar
DR13      -7.83 dB   -24.85 dB      3:19 17-Aprieta El Pollo
DR13      -8.51 dB   -23.59 dB      3:31 18-Guaguanco En Tropicana
DR12      -5.97 dB   -20.16 dB      3:06 19-Cuero Na 'Ma
DR12      -5.21 dB   -21.18 dB      2:55 20-Preparen Candela
DR14      -4.83 dB   -21.16 dB      3:06 21-Baile Mi Mambo
DR15      -4.87 dB   -22.49 dB      2:40 22-Nuevo Mambo
DR17      -4.59 dB   -23.90 dB      2:36 23-Pito Joe
DR13      -5.98 dB   -20.76 dB      2:54 24-Plaza Stomp
DR13      -6.14 dB   -21.99 dB      3:16 25-Donkey Serenade
--------------------------------------------------------------------------------

Number of tracks:  25
Official DR value: DR14

Samplerate:        44100 Hz
Channels:          2
Bits per sample:   24
Bitrate:           1248 kbps
Codec:             FLAC
================================================================================
Приватный:
Нет (DHT включён)
Размер:
671.70 Мб (704,330,582 байт) » файлов: 29
Участники:
0 раздают, 0 качают (0 участников всего)
Внешние участники:
3 раздают, 1 качают (4 участников всего) [ Обновить ]
Есть вопросы - пишите личное сообщение пользователю M0p94ok.
10:10
24
Нет комментариев. Ваш будет первым!