Поиск

2018 Toytoy - The Wattwatt Session {JazzLab} [24-44,1]

2018 Toytoy - The Wattwatt Session {JazzLab} [24-44,1]
Дата издания диска:
30 ноября 2018
Носитель:
WEB
Формат:
PCM
Тип рипа:
tracks
Контейнер:
FLAC (*.flac)
Количество каналов:
2.0
Разрядность/ЧД:
24/44,1
Формат записи/Источник записи:
[TR24][OF]
Время звучания:
00:25:55
Наличие сканов:
только обложка
Наличие водяных знаков:
нет
Страна-производитель диска (релиза):
Germany
Релизёр (источник):
M0p94ok
Треклист:

1. Fantastic Föhr  04:02
2. Free Trees  04:17
3. Dancing 101  04:19
4. Cowcow  06:27
5. Olympic  04:30
6. Parallel Universe  02:17

Лог проверки качества
foobar2000 1.3.16 / Dynamic Range Meter 1.1.1
log date: 2018-11-16 17:04:08

--------------------------------------------------------------------------------
Analyzed: TOYTOY / The Wattwatt Session
--------------------------------------------------------------------------------

DR         Peak         RMS     Duration Track
--------------------------------------------------------------------------------
DR11      -0.99 dB   -13.47 dB      4:03 01-Fantastic Fohr
DR11      -0.88 dB   -13.24 dB      4:17 02-Free Trees
DR10      -1.00 dB   -13.13 dB      2:18 03-Dancing 101
DR11      -1.01 dB   -14.91 dB      4:30 04-Cowcow
DR9       -0.77 dB   -13.15 dB      6:27 05-Olympic
DR10      -1.00 dB   -12.38 dB      4:20 06-Parallel Universe
--------------------------------------------------------------------------------

Number of tracks:  6
Official DR value: DR10

Samplerate:        44100 Hz
Channels:          2
Bits per sample:   24
Bitrate:           1483 kbps
Codec:             FLAC
================================================================================
Приватный:
Нет (DHT включён)
Размер:
262.51 Мб (275,264,437 байт) » файлов: 8
Участники:
4 раздают, 0 качают (4 участников всего)
Внешние участники:
--- [ Обновить ]
Есть вопросы - пишите личное сообщение пользователю M0p94ok.
10:55
25
Нет комментариев. Ваш будет первым!