Поиск

1971 Quincy Jones - Smackwater Jack {A&M} [24-192]

1971 Quincy Jones - Smackwater Jack {A&M} [24-192]
Стили:
Издатель (лейбл):
Битрейт аудио:
lossless
Доп. инфо:

Формат записи/Источник записи: [TR24][OF]
Издание: Remastered
Год издания/переиздания диска: 1971/2021
Продолжительность: 00:41:58
Наличие сканов в содержимом раздачи: Нет

Контейнер: FLAC (*.flac)
Тип рипа: tracks
Разрядность: 24/192
Количество каналов: 2.0

Источник (релизер): HDTracks

Лог проверки качества
foobar2000 1.4.3 / Dynamic Range Meter 1.1.1
log date: 2021-03-29 22:31:03

--------------------------------------------------------------------------------
Analyzed: Quincy Jones / Smackwater Jack
--------------------------------------------------------------------------------

DR         Peak         RMS     Duration Track
--------------------------------------------------------------------------------
DR8       -0.34 dB    -9.91 dB      3:23 01-Smackwater Jack
DR11      -0.34 dB   -14.66 dB      4:28 02-Cast Your Fate To The Wind
DR9       -0.34 dB   -11.89 dB      3:53 03-Ironside (Theme From "Ironside")
DR9       -0.34 dB   -11.14 dB      9:54 04-What's Going On?
DR9       -0.34 dB   -11.89 dB      5:18 05-Theme From "The Anderson Tapes"
DR10      -0.34 dB   -12.59 dB      4:22 06-Brown Ballad
DR9       -0.34 dB   -11.89 dB      4:04 07-Hikky Burr (Theme From "The Bill Cosby Show")
DR9       -0.34 dB   -13.13 dB      6:41 08-Guitar Blues Odyssey: From Roots To Fruits
--------------------------------------------------------------------------------

Number of tracks:  8
Official DR value: DR9

Samplerate:        192000 Hz
Channels:          2
Bits per sample:   24
Bitrate:           5658 kbps
Codec:             FLAC
================================================================================
No seeders - write personal message to M0p94ok. Any questions - support@pro-jazz.com.
Нет сидеров - пишите в личку M0p94ok. Есть вопросы - support@pro-jazz.com
12:14
59
Нет комментариев. Ваш будет первым!