Вы используете незарегистрированную версию компонента "Вкладки"!

Поиск

2017 The 3 Sounds feat. Gene Harris - Groovin' Hard (Live at The Penthouse 1964-1968) {2xHD} [24-192]

2017 The 3 Sounds feat. Gene Harris - Groovin' Hard (Live at The Penthouse 1964-1968) {2xHD} [24-192]
Стили:
Место записи:
The Penthouse, Seattle, WA
Дата издания диска:
13 января 2017
Издатель (лейбл):
Носитель:
WEB
Формат:
PCM
Тип рипа:
tracks
Контейнер:
FLAC (*.flac)
Количество каналов:
2.0
Разрядность/ЧД:
24/192
Битрейт аудио:
lossless
Время звучания:
00:50:18
Наличие сканов:
только обложка
Страна-производитель диска (релиза):
USA
Релизёр (источник):
M0p94ok
Лог проверки качества
foobar2000 1.6.2 / Dynamic Range Meter 1.1.1
log date: 2021-07-04 17:24:11

--------------------------------------------------------------------------------
Analyzed: Gene Harris / Groovin' Hard: Live at The Penthouse 1964-1968
--------------------------------------------------------------------------------

DR         Peak         RMS     Duration Track
--------------------------------------------------------------------------------
DR12      -2.49 dB   -17.42 dB      6:15 01-Girl Talk
DR11      -1.81 dB   -16.97 dB      5:47 02-Night Has a Thousand Eyes
DR13      -2.47 dB   -17.76 dB      3:12 03-Blues Genes
DR11      -1.74 dB   -17.05 dB      6:20 04-The Sandpiper: The Shadow Of Your Smile
DR10      -3.01 dB   -16.60 dB      2:27 05-Rat Down Front
DR11      -5.40 dB   -20.10 dB      7:43 06-Yours Is My Heart Alone
DR11      -5.67 dB   -21.22 dB      4:07 07-AM Blues
DR11      -4.66 dB   -19.52 dB      6:42 08-Bluesette
DR11      -2.56 dB   -17.13 dB      5:01 09-Caesar & Cleopatra
DR10      -2.91 dB   -16.18 dB      2:43 10-The Boogaloo
--------------------------------------------------------------------------------

Number of tracks:  10
Official DR value: DR11

Samplerate:        192000 Hz
Channels:          2
Bits per sample:   24
Bitrate:           4639 kbps
Codec:             FLAC
================================================================================
Any questions - support@pro-jazz.com. Есть вопросы - support@pro-jazz.com
18:03
100
Нет комментариев. Ваш будет первым!