Поиск

2020 Claudio Chiara & Emanuele Cisi - People Time {Venus} [DSD64 ISO]

2020 Claudio Chiara & Emanuele Cisi - People Time {Venus} [DSD64 ISO]
Дата записи диска:
23 февраля 2020
Место записи:
Riverside Studio, Turin, Italy
Дата издания диска:
16 декабря 2020
Издатель (лейбл):
Номер по каталогу:
VHGD-364
Битрейт аудио:
lossless
Доп. инфо:

Формат записи/Источник записи: [SACD-R][OF]
Наличие водяных знаков: Нет
Год издания диска: 2021
Продолжительность: 00:53:40
Наличие сканов в содержимом раздачи: Только обложка альбома

Контейнер: ISO (*.iso)
Тип рипа: image
Разрядность: 64(2,8 MHz/1 Bit)
Формат: DSD
Количество каналов: 2.0

Источник (релизер): jazzy pic

Лог проверки качества
foobar2000 1.6.4 / Dynamic Range Meter 1.1.1
log date: 2021-04-05 21:04:23

--------------------------------------------------------------------------------
Analyzed: Claudio Chiara and Emanuele Cisi / PEOPLE TIME
--------------------------------------------------------------------------------

DR         Peak         RMS     Duration Track
--------------------------------------------------------------------------------
DR12      -4.96 dB   -19.06 dB      6:17 01-It's Easy To Remember
DR11      -5.01 dB   -19.39 dB      4:27 02-People Time
DR12      -5.13 dB   -19.78 dB      4:12 03-If You Could See Me Now
DR10      -5.13 dB   -17.23 dB      2:58 04-Body And Soul Take.1
DR11      -4.93 dB   -18.76 dB      5:10 05-Spring Can Really Hang You Up The Most
DR11      -4.72 dB   -18.50 dB      3:07 06-Who Can I Turn To?
DR10      -5.15 dB   -17.46 dB      4:06 07-You Taught My Heart To Sing
DR13      -5.09 dB   -20.70 dB      4:35 08-Goodbye
DR11      -4.52 dB   -17.95 dB      7:25 09-Darn That Dream
DR11      -4.95 dB   -19.29 dB      3:52 10-Never Let Me Go
DR13      -5.30 dB   -20.53 dB      4:41 11-Where Are You?
DR11      -5.13 dB   -17.73 dB      2:51 12-Body And Soul Take.2
--------------------------------------------------------------------------------

Number of tracks:  12
Official DR value: DR11

Samplerate:        2822400 Hz / PCM Samplerate: 88200 Hz
Channels:          2
Bits per sample:   1
Bitrate:           5645 kbps
Codec:             DSD64
================================================================================
No seeders - write personal message to M0p94ok. Any questions - support@pro-jazz.com.
Нет сидеров - пишите в личку M0p94ok. Есть вопросы - support@pro-jazz.com
15:51
53
Нет комментариев. Ваш будет первым!