Поиск

1982 Frank Loef & Gert Wilden - Just Fun (2017) {MPS} [24-88.2]

1982 Frank Loef & Gert Wilden - Just Fun (2017) {MPS} [24-88.2]
Стили:
Дата записи диска:
11 января - 17 января, 19 января - 21 января 1982
Место записи:
Union Studios, Munich, Germany
Дата переиздания диска:
20 октября 2017
Издатель (лейбл):
Номер по каталогу:
MPS 15587
Битрейт аудио:
lossless
Доп. инфо:

• Формат записи | Источник записи: [TR24][OF]
• Наличие водяных знаков: Нет
• Продолжительность: 00:35:24
• Источник: internet
• WEB релиз: ссылка
• Контейнер: FLAC (*.flac)
• Тип рипа: tracks
• Разрядность: 24/88,2
• Формат: PCM
• Количество каналов: 2.0
• Наличие сканов: front

Клавишник / композитор Герт Уилден и саксофонист / композитор Фрэнк Лоэф более известны своими музыкальными композициями для кино и телевидения, чем своей работой в качестве джазовых музыкантов. В частности, Уилден стал главной кинематографической силой, написав музыку для таких фильмов, как короткометражный фильм «Quiro Ser», получивший «Оскар», и «Софи Шолль: Последние дни», номинированный на «Оскар». Здесь двое изображены на ранних этапах своей карьеры, полных смелости и фанка. Композиции написаны Уилденом или Лёфом. «Born Tomorrow» предлагает щедрую порцию фанкового соула, «Mouse Muscles» играет расслабленные соло с Уилденом на Родосе и Лоуфом на теноре в разговоре с гитарой Арубана Ройки Вида, а «Let Me Hear You» начинается обманчиво большим тоном, прежде чем приступить к работе с гитарой. мрачный драйвовый ритмичный рифф, лежащий в основе взрывного тенорового соло. Группа меняет ритм с тонкой обработкой Лоуфа «Ballard To A Lonely Genious», в то время как яркая и свежая самба «Los Angeles Sun Dance» исполняет и Уилдена, и Лоуфа. Это возвращение к грустному фанку на «Schoobidoo For Mary Loo», с чистым и злым Родсом и гитарными соло. В драйвовом «K’s Boogie» чувствуется привкус хэви-метал-бибопа, на первом плане - синтезированный саксофон Лоуфа, а эмпатическая флейта Лоуфа направляет его «Have to Dry My Tears Alone». Название говорит само за себя: этот душевный альбом Just Fun!

Лог проверки качества
foobar2000 1.4.2 / Dynamic Range Meter 1.1.1
log date: 2021-03-24 10:20:13

--------------------------------------------------------------------------------
Analyzed: Gert Wilden / Just Fun
--------------------------------------------------------------------------------

DR         Peak         RMS     Duration Track
--------------------------------------------------------------------------------
DR13      -0.75 dB   -16.70 dB      5:43 01-Born Tomorrow
DR13      -1.51 dB   -17.00 dB      4:30 02-Mouse Muscles Groove Band
DR12      -2.42 dB   -15.91 dB      4:25 03-Let Me Hear Your Tube Scream
DR13      -0.99 dB   -18.82 dB      4:04 04-Ballad to a Lonely Genious
DR14      -2.01 dB   -17.77 dB      4:08 05-Los Angeles Sun Dance
DR13      -1.06 dB   -16.09 dB      3:56 06-Schoobidoo for Mary Loo
DR11      -0.79 dB   -13.86 dB      5:59 07-K's Boogie
DR8       -4.64 dB   -16.89 dB      2:39 08-Have to Dry My Tears Alone
--------------------------------------------------------------------------------

Number of tracks:  8
Official DR value: DR12

Samplerate:        88200 Hz
Channels:          2
Bits per sample:   24
Bitrate:           2325 kbps
Codec:             FLAC
================================================================================
No seeders - write personal message to M0p94ok. Any questions - support@pro-jazz.com.
Нет сидеров - пишите в личку M0p94ok. Есть вопросы - support@pro-jazz.com
19:23
50
Нет комментариев. Ваш будет первым!