Вы используете незарегистрированную версию компонента "Вкладки"!

Поиск

2016 Hagiga Sextet - New Directions (2019) {Hagiga Sextet} [24-44.1]

2016 Hagiga Sextet - New Directions (2019) {Hagiga Sextet} [24-44.1]
Место записи:
Bardo Studios, Ramat Gan
Дата издания диска:
20 сентября 2016
Дата переиздания диска:
17 октября 2019
Носитель:
WEB
Формат:
PCM
Тип рипа:
tracks
Контейнер:
FLAC (*.flac)
Количество каналов:
2.0
Разрядность/ЧД:
24/44,1
Битрейт аудио:
lossless
Время звучания:
00:44:04
Наличие сканов:
только обложка
Страна-производитель диска (релиза):
Israel
Релизёр (источник):
M0p94ok
Лог проверки качества
foobar2000 1.6.2 / Dynamic Range Meter 1.1.1
log date: 2021-07-05 20:27:22

--------------------------------------------------------------------------------
Analyzed: Hagiga Sextet / New Directions
--------------------------------------------------------------------------------

DR         Peak         RMS     Duration Track
--------------------------------------------------------------------------------
DR11      -0.10 dB   -14.48 dB      8:56 01-Green Lizard
DR12      -0.31 dB   -14.56 dB      2:47 02-New Directions Suite, Pt. 1: Night Walk
DR10      -4.35 dB   -16.92 dB      0:57 03-New Directions Suite, Pt. 2: Short Dream
DR11      -0.10 dB   -14.35 dB      5:50 04-New Directions Suite, Pt. 3: Dawn Dance
DR11      -0.10 dB   -13.10 dB      4:00 05-New Directions Suite, Pt. 4: Seven Four Seven
DR13      -1.04 dB   -16.41 dB      4:24 06-Ofer
DR11      -0.10 dB   -14.12 dB      5:26 07-Like Farb
DR12      -0.10 dB   -14.17 dB      5:48 08-Minuet for Maya
DR11      -0.10 dB   -13.98 dB      5:56 09-One for Uchshplup
--------------------------------------------------------------------------------

Number of tracks:  9
Official DR value: DR11

Samplerate:        44100 Hz
Channels:          2
Bits per sample:   24
Bitrate:           1540 kbps
Codec:             FLAC
================================================================================
Any questions - support@pro-jazz.com. Есть вопросы - support@pro-jazz.com
20:41
77
Нет комментариев. Ваш будет первым!