Поиск

2021 Hedvig Mollestad Trio - Ding Dong. You´re Dead. {Rune Grammofon} [24-44.1]

2021 Hedvig Mollestad Trio - Ding Dong. You´re Dead. {Rune Grammofon} [24-44.1]
Стили:
Дата издания диска:
19 марта 2021
Битрейт аудио:
lossless
Доп. инфо:

Хедвиг Моллестад Томассен - гитара / Эллен Бреккен - бас / Ивар Ло Бьорнстад - ударные. Спустя всего девять месяцев после ее знаменательного дебютного сольного альбома Ekhidna гитаристка вернулась в свое трио.

С их предыдущим альбомом, Smells Funny, это взрывное и экспансивное трио совершило своего рода прорыв, набравшись силы за пять альбомов с момента их дебюта 2011 года Shoot !, собрав уважение как в рок, так и в джазовых лагерях, разделив большие сцены с Джоном Маклафлином и Black Sabbath, и одинаково комфортно играя на джазовой и рок-сценах.

Хедвиг реализовала этот прорыв с помощью Ekhidna, появившись как в списках джазовых, так и в рок-музыкальных композициях 2020 года, например, заняв третье место в опросе Prog «Альбом года».

Она была включена в список Downbeat "25 for the future" и получила кучу международного внимания и отличных отзывов. С гипнотическим заглавным треком, просторной балладой Four Candles и вообще более разнообразным настроением. Ding Dong. You´re Dead. это самый динамичный альбом трио на сегодняшний день. Тем не менее, здесь все еще достаточно солидных и креативных риффов, чтобы удовлетворить хедбэнгеров, а также джаз-хэдов, поскольку они продолжают исследовать свободные и открытые пейзажи, в первую очередь, начиная с их альбома Black Stabat Mater и продолжая с Smells Funny.

Как писал Нейт Чинен о "Black Stabat Mater" в JazzTimes: Ее трио, в котором Эллен Бреккен на басу и Ивар Ло Бьорнстад на барабанах, привлекло мое ухо своими смелыми отсылками к стилю: свободное чванство раннего Black Sabbath; плотность и рыскание по острию Led Zeppelin; стремление к исследованиям Джими Хендрикса; колдовской пыл Джона Маклафлина.

Как показали недавние выступления, онлайн и во плоти, это трио излучает уверенность и стало настоящим хитом на норвежской живой сцене.

Хедвиг впервые взяла в руки акустическую гитару своей матери в десять лет, а в подростковом возрасте открыла для себя совершенно новый мир благодаря коллекции джазовых и рок-пластинок своего отца.

Для поощрения ей подарили первую электрогитару и усилитель. Хедвиг познакомилась с Эллен и Иваром в Музыкальной академии в Осло и попросила их присоединиться к ней после того, как она получила награду «Молодой джазовый талант года» на Международном джазовом фестивале в Мольде в 2009 году.

С тех пор они остаются вместе, и все их предыдущие альбомы были выпущены на Rune Grammofon и получили международное признание.

• Формат записи | Источник записи: [TR24][OF]
• Наличие водяных знаков: Нет
• Год издания релиза: 2021
• Лейбл: Rune Grammofon
• Продолжительность: 00:41:23
• Источник: internet
• WEB релиз: ссылка
• Контейнер: FLAC (*.flac)
• Тип рипа: tracks
• Разрядность: 24/44,1
• Формат: PCM
• Количество каналов: 2.0
• Наличие сканов: front

Лог проверки качества
foobar2000 1.4.2 / Dynamic Range Meter 1.1.1
log date: 2021-03-24 10:21:16

--------------------------------------------------------------------------------
Analyzed: Hedvig Mollestad Trio / Ding Dong. YouР’Т‘re Dead.
--------------------------------------------------------------------------------

DR         Peak         RMS     Duration Track
--------------------------------------------------------------------------------
DR9       -0.01 dB    -9.72 dB      7:30 01-Leo FlashРІР‚в„ў Return To The Underworld
DR8       -0.22 dB    -9.81 dB      5:27 02-All Flights Cancelled
DR15      -0.63 dB   -18.32 dB      7:08 03-Ding Dong. YouРІР‚в„ўre Dead.
DR9       -0.17 dB   -10.82 dB      5:32 04-Gimbal
DR10      -0.15 dB   -11.76 dB      5:32 05-Magic Moshroom
DR10      -0.05 dB   -11.09 dB      4:42 06-The Art of Being Jon Balkovitch
DR14      -1.81 dB   -22.20 dB      5:32 07-Four Candles
--------------------------------------------------------------------------------

Number of tracks:  7
Official DR value: DR11

Samplerate:        44100 Hz
Channels:          2
Bits per sample:   24
Bitrate:           1301 kbps
Codec:             FLAC
================================================================================
No seeders - write personal message to M0p94ok. Any questions - support@pro-jazz.com.
Нет сидеров - пишите в личку M0p94ok. Есть вопросы - support@pro-jazz.com
09:39
48
Нет комментариев. Ваш будет первым!