Поиск

2021 Massimo Farao - Nuovo Cinema Paradiso {Venus} [DSD64 ISO]

2021 Massimo Farao - Nuovo Cinema Paradiso {Venus} [DSD64 ISO]
Стили:
Дата записи диска:
21 июля - 22 июля 2020
Место записи:
Riverside Studio, Torino, Italy
Издатель (лейбл):
Номер по каталогу:
VHGD-365
Битрейт аудио:
lossless
Доп. инфо:

Формат записи/Источник записи: [SACD-R][OF]
Наличие водяных знаков: Нет
Год издания диска: 2021
Продолжительность: 00:55:14
Наличие сканов в содержимом раздачи: Только обложка альбома

Контейнер: ISO (*.iso)
Тип рипа: image
Разрядность: 64 (2,8 MHz/1 Bit)
Формат: DSD
Количество каналов: 2.0

Доп. информация: HRAudio.net
Источник (релизер): jazzy pic

Лог проверки качества
foobar2000 1.6.4 / Dynamic Range Meter 1.1.1
log date: 2021-04-06 18:50:27

--------------------------------------------------------------------------------
Analyzed: Massimo Faraó / Nuovo Cinema Paradiso ~ tribute to Ennio Morricone
--------------------------------------------------------------------------------

DR         Peak         RMS     Duration Track
--------------------------------------------------------------------------------
DR9       -4.89 dB   -15.90 dB      5:46 01-La Classe Operaia Va In Paradiso
DR10      -4.83 dB   -16.63 dB      6:08 02-Il Buono Il Brutto E Il Cattivo
DR12      -4.98 dB   -20.60 dB      6:13 03-Gabriel's Oboe
DR8       -5.26 dB   -16.69 dB      4:03 04-Indagine
DR10      -7.50 dB   -20.04 dB      5:15 05-C'era Una Volta Il West
DR9       -5.53 dB   -17.69 dB      4:34 06-Giu' La Testa
DR9       -7.34 dB   -19.69 dB      4:18 07-Nuovo Cinema Paradiso
DR7       -8.55 dB   -19.22 dB      4:31 08-Deborah's Theme
DR8       -8.38 dB   -19.93 dB      3:32 09-Once Upon A Time In America
DR8       -8.47 dB   -21.18 dB      4:05 10-Playing Love
DR8       -8.26 dB   -19.13 dB      3:32 11-Mission
DR7       -5.29 dB   -17.59 dB      3:17 12-Once Upon A Time In America
--------------------------------------------------------------------------------

Number of tracks:  12
Official DR value: DR9

Samplerate:        2822400 Hz / PCM Samplerate: 88200 Hz
Channels:          2
Bits per sample:   1
Bitrate:           5645 kbps
Codec:             DSD64
================================================================================
No seeders - write personal message to M0p94ok. Any questions - support@pro-jazz.com.
Нет сидеров - пишите в личку M0p94ok. Есть вопросы - support@pro-jazz.com
18:07
28
Нет комментариев. Ваш будет первым!