Вы используете незарегистрированную версию компонента "Вкладки"!

Поиск

2015 Ibrahim Maalouf - Au pays d'Alice... (Instrumental Version) {Mi'ster} [24-44.1]

2015 Ibrahim Maalouf - Au pays d'Alice... (Instrumental Version) {Mi'ster} [24-44.1]
Стили:
Место записи:
Studio Diasporas; Studio Babel, Montreuil, Paris, France
Дата издания диска:
3 ноября 2014
Носитель:
WEB
Формат:
PCM
Тип рипа:
tracks
Контейнер:
FLAC (*.flac)
Количество каналов:
2.0
Разрядность/ЧД:
24/44,1
Битрейт аудио:
lossless
Наличие сканов:
буклет pdf
Страна-производитель диска (релиза):
France
Релизёр (источник):
M0p94ok
Лог проверки качества
foobar2000 1.6.2 / Dynamic Range Meter 1.1.1
log date: 2021-07-06 19:12:58

--------------------------------------------------------------------------------
Analyzed: Ibrahim Maalouf / Au pays d'Alice... (Instrumental Version)
--------------------------------------------------------------------------------

DR         Peak         RMS     Duration Track
--------------------------------------------------------------------------------
DR11      -0.60 dB   -16.27 dB      3:26 01-Introduction
DR10      -0.60 dB   -15.01 dB      4:04 02-Tomber longtemps (Instrumental Version)
DR10      -0.60 dB   -12.08 dB      4:49 03-Jamais quand il faut (Instrumental Version)
DR8       -0.60 dB   -12.51 dB      4:17 04-La course au caucus (Instrumental Version)
DR11      -0.60 dB   -13.78 dB      4:10 05-La porte bonheur (Instrumental Version)
DR11      -0.60 dB   -16.21 dB      1:58 06-Interlude
DR9       -0.60 dB   -11.99 dB      3:45 07-Les conseils d'une chenille (Instrumental Version)
DR10      -0.60 dB   -13.45 dB      2:02 08-Interlude 2
DR8       -0.60 dB   -11.82 dB      5:50 09-Poivre et cochon (Instrumental Version)
DR11      -0.60 dB   -15.42 dB      4:22 10-L'heure du T (Instrumental Version)
DR10      -0.60 dB   -12.82 dB      3:29 11-Le destin des cartes (Instrumental Version)
DR8       -0.60 dB   -12.51 dB      5:51 12-Partie de croquet (Instrumental Version)
DR9       -0.60 dB   -11.15 dB      4:40 13-Simili tortue (Instrumental Version)
DR13      -0.60 dB   -14.15 dB      2:21 14-Le complot (Instrumental Version)
DR8       -0.60 dB   -10.94 dB      4:47 15-Le process (Instrumental Version)
--------------------------------------------------------------------------------

Number of tracks:  15
Official DR value: DR10

Samplerate:        44100 Hz
Channels:          2
Bits per sample:   24
Bitrate:           1635 kbps
Codec:             FLAC
================================================================================
Any questions - support@pro-jazz.com. Есть вопросы - support@pro-jazz.com
01:01
65
Нет комментариев. Ваш будет первым!