Поиск

2019 Jakob Norgren Jazz Orchestra - Creations & Transformations {Wime} [24-44.1]

2019 Jakob Norgren Jazz Orchestra - Creations & Transformations {Wime} [24-44.1]
Стили:
Дата издания диска:
4 октября 2019
Носитель:
WEB
Формат:
PCM
Тип рипа:
tracks
Контейнер:
FLAC (*.flac)
Количество каналов:
2.0
Разрядность/ЧД:
24/44,1
Битрейт аудио:
lossless
Время звучания:
00:51:05
Наличие сканов:
только обложка
Страна-производитель диска (релиза):
Sweden
Релизёр (источник):
M0p94ok
Лог проверки качества
foobar2000 1.6.2 / Dynamic Range Meter 1.1.1
log date: 2021-07-07 11:59:03

--------------------------------------------------------------------------------
Analyzed: Jakob Norgren Jazz Orchestra / Creations & Transformations
--------------------------------------------------------------------------------

DR         Peak         RMS     Duration Track
--------------------------------------------------------------------------------
DR12      -0.93 dB   -15.87 dB      5:39 01-Crazy
DR12      -0.91 dB   -15.99 dB      5:52 02-Holen Blues
DR13      -1.04 dB   -17.94 dB      4:50 03-The Sound of Music
DR10      -0.92 dB   -13.46 dB      5:22 04-T.T.F.
DR12      -1.07 dB   -16.46 dB      7:57 05-I Can't Go For That
DR13      -1.05 dB   -18.16 dB      7:11 06-Wake-Up Call
DR11      -1.08 dB   -15.58 dB      5:42 07-Careless Whisper
DR12      -0.84 dB   -15.90 dB      8:32 08-Pathfinding (Live)
--------------------------------------------------------------------------------

Number of tracks:  8
Official DR value: DR12

Samplerate:        44100 Hz
Channels:          2
Bits per sample:   24
Bitrate:           1523 kbps
Codec:             FLAC
================================================================================
No seeders - write personal message to M0p94ok. Any questions - support@pro-jazz.com.
Нет сидеров - пишите в личку M0p94ok. Есть вопросы - support@pro-jazz.com
12:06
46
Нет комментариев. Ваш будет первым!