Поиск

2021 Emmanuel Lerouge, Nicolas Prost & Cedric Cyprien - Circle {iMD} [24-96]

2021 Emmanuel Lerouge, Nicolas Prost & Cedric Cyprien - Circle {iMD} [24-96]
Стили:
Дата издания диска:
2 апреля 2021
Битрейт аудио:
lossless
Доп. инфо:

• Формат записи | Источник записи: [TR24][OF]
• Наличие водяных знаков: Нет
• Год издания релиза: 2021
• Лейбл: iMD-Labarraque
• Продолжительность: 00:42:07
• Источник: internet
• WEB релиз: ссылка
• Контейнер: FLAC (*.flac)
• Тип рипа: tracks
• Разрядность: 24/96
• Формат: PCM
• Количество каналов: 2.0
• Наличие сканов: front

Лог проверки качества
foobar2000 1.4.2 / Dynamic Range Meter 1.1.1
log date: 2021-04-06 20:36:21

--------------------------------------------------------------------------------
Analyzed: Emmanuel Lerouge / Circle
--------------------------------------------------------------------------------

DR         Peak         RMS     Duration Track
--------------------------------------------------------------------------------
DR11      -1.01 dB   -14.24 dB      5:59 01-Circle
DR11      -1.01 dB   -13.99 dB      4:33 02-Mustang
DR13      -1.01 dB   -17.18 dB      4:57 03-Sepia
DR10      -1.01 dB   -12.82 dB      4:11 04-Star's in Shadow
DR9       -1.01 dB   -12.06 dB      5:38 05-Labyrinthe
DR11      -1.01 dB   -13.98 dB      4:06 06-Roots
DR11      -1.01 dB   -13.83 dB      3:03 07-Run's
DR10      -1.01 dB   -12.76 dB      5:26 08-Oxy
DR10      -1.01 dB   -12.96 dB      4:15 09-Funkiss
--------------------------------------------------------------------------------

Number of tracks:  9
Official DR value: DR11

Samplerate:        96000 Hz
Channels:          2
Bits per sample:   24
Bitrate:           2862 kbps
Codec:             FLAC
================================================================================
No seeders - write personal message to M0p94ok. Any questions - support@pro-jazz.com.
Нет сидеров - пишите в личку M0p94ok. Есть вопросы - support@pro-jazz.com
12:23
46
Нет комментариев. Ваш будет первым!