Поиск

2017 Crazy Moon - West Side Story {Curling Legs} [24-96]

2017 Crazy Moon - West Side Story {Curling Legs} [24-96]
Дата издания диска:
15 мая 2017
Битрейт аудио:
lossless
Доп. инфо:

• Формат записи | Источник записи: [TR24][OF]
• Наличие водяных знаков: Нет
• Год издания релиза: 2017
• Лейбл: Curling Legs
• Продолжительность: 00:59:44
• Источник: internet
• WEB релиз: ссылка
• Контейнер: FLAC (*.flac)
• Тип рипа: tracks
• Разрядность: 24/96
• Формат: PCM
• Количество каналов: 2.0
• Наличие сканов: front

Лог проверки качества
foobar2000 1.4.2 / Dynamic Range Meter 1.1.1
log date: 2021-04-07 11:08:29

--------------------------------------------------------------------------------
Analyzed: Crazy Moon / West Side Story
--------------------------------------------------------------------------------

DR         Peak         RMS     Duration Track
--------------------------------------------------------------------------------
DR12      -0.35 dB   -14.66 dB      4:01 01-SomethingВґs Coming
DR11      -1.61 dB   -17.34 dB      7:47 02-Maria
DR12      -3.01 dB   -20.79 dB      7:44 03-Tonight
DR14      -0.24 dB   -17.83 dB      9:44 04-Puerto Rico/America
DR13      -0.90 dB   -18.02 dB      4:58 05-One Hand, One Heart
DR12      -3.05 dB   -18.41 dB      3:40 06-I Feel Pretty
DR11      -0.10 dB   -15.43 dB      5:54 07-A Boy Like That
DR12      -0.10 dB   -15.31 dB      4:45 08-I Have a Love
DR13      -0.10 dB   -16.92 dB      7:30 09-The Rumble
DR10      -5.51 dB   -21.62 dB      3:41 10-Somewhere
--------------------------------------------------------------------------------

Number of tracks:  10
Official DR value: DR12

Samplerate:        44100 Hz
Channels:          2
Bits per sample:   24
Bitrate:           1163 kbps
Codec:             FLAC
================================================================================
No seeders - write personal message to M0p94ok. Any questions - support@pro-jazz.com.
Нет сидеров - пишите в личку M0p94ok. Есть вопросы - support@pro-jazz.com
15:09
54
Нет комментариев. Ваш будет первым!