Поиск

2021 Iseul Kim Trio - True Me {Iseul Music} [24-48]

2021 Iseul Kim Trio - True Me {Iseul Music} [24-48]
Дата издания диска:
5 апреля 2021
Битрейт аудио:
lossless

Треклист:

◈ 01 - Hidden Moon (00:05:27)
◈ 02 - The Sahara part2 (00:05:42)
◈ 03 - True Me (00:05:32)
◈ 04 - 2020 (00:03:04)
◈ 05 - Peace in Chaos (00:07:09)
◈ 06 - Hang (00:05:11)
◈ 07 - Danza (00:05:35)
◈ 08 - Astoria Waltz (00:06:49)

Доп. инфо:

• Формат записи | Источник записи: [TR24][OF]
• Наличие водяных знаков: Нет
• Год издания релиза: 2021
• Лейбл: Iseul Music
• Продолжительность: 00:44:34
• Источник: internet
• WEB релиз: ссылка
• Контейнер: FLAC (*.flac)
• Тип рипа: tracks
• Разрядность: 24/48
• Формат: PCM
• Количество каналов: 2.0
• Наличие сканов: front

Лог проверки качества
foobar2000 1.4.2 / Dynamic Range Meter 1.1.1
log date: 2021-04-07 11:10:09

--------------------------------------------------------------------------------
Analyzed: Iseul Kim Trio / True Me
--------------------------------------------------------------------------------

DR         Peak         RMS     Duration Track
--------------------------------------------------------------------------------
DR11      -0.10 dB   -13.79 dB      5:28 01-Hidden Moon
DR6        0.00 dB    -8.40 dB      5:43 02-The Sahara part2
DR8       -0.10 dB   -10.08 dB      5:33 03-True Me
DR14      -2.47 dB   -21.32 dB      3:05 04-2020
DR7       -1.53 dB   -11.72 dB      7:10 05-Peace in Chaos
DR9        0.00 dB   -12.05 dB      5:12 06-Hang
DR6       -0.10 dB    -8.20 dB      5:36 07-Danza
DR9       -0.04 dB   -12.84 dB      6:49 08-Astoria Waltz
--------------------------------------------------------------------------------

Number of tracks:  8
Official DR value: DR9

Samplerate:        48000 Hz
Channels:          2
Bits per sample:   24
Bitrate:           1606 kbps
Codec:             FLAC
================================================================================
По всем вопросам пишите личное сообщение пользователю M0p94ok.
15:56
297
Нет комментариев. Ваш будет первым!