Поиск

2009 Lee Hutson - Soothe You Groove You {Triumph} [24-96]

2009 Lee Hutson - Soothe You Groove You {Triumph} [24-96]
Дата издания диска:
13 апреля 2009
Номер по каталогу:
4697-1
Битрейт аудио:
lossless
Доп. инфо:

• Формат записи | Источник записи: [TR24][OF]
• Наличие водяных знаков: Нет
• Год издания релиза: 2009 (2019)
• Продолжительность: 00:40:20
• Источник: internet
• WEB релиз: ссылка
• Контейнер: FLAC (*.flac)
• Тип рипа: tracks
• Разрядность: 24/96
• Формат: РСМ
• Количество каналов: 2.0
• Наличие сканов: front

Лог проверки качества
foobar2000 1.4.2 / Dynamic Range Meter 1.1.1
log date: 2021-04-07 11:10:49

--------------------------------------------------------------------------------
Analyzed: Lee Hutson / Soothe You Groove You
--------------------------------------------------------------------------------

DR         Peak         RMS     Duration Track
--------------------------------------------------------------------------------
DR11      -1.73 dB   -14.20 dB      5:28 01-When I Fall In Love
DR11      -1.61 dB   -13.40 dB      4:44 02-The Ghetto
DR11      -2.79 dB   -14.28 dB      4:08 03-Somewhere In the Night
DR11      -1.67 dB   -13.46 dB      5:34 04-Starlite
DR11      -1.89 dB   -14.86 dB      4:18 05-Suite Surrender
DR12      -1.73 dB   -14.11 dB      3:53 06-Evening In San Juan
DR11      -1.99 dB   -14.41 dB      4:54 07-The Way You Say
DR11      -2.29 dB   -13.94 dB      3:55 08-Wish You Were Here
DR10      -2.79 dB   -13.92 dB      3:26 09-Time Out
--------------------------------------------------------------------------------

Number of tracks:  9
Official DR value: DR11

Samplerate:        96000 Hz
Channels:          2
Bits per sample:   24
Bitrate:           2764 kbps
Codec:             FLAC
================================================================================
No seeders - write personal message to M0p94ok. Any questions - support@pro-jazz.com.
Нет сидеров - пишите в личку M0p94ok. Есть вопросы - support@pro-jazz.com
09:34
57
Нет комментариев. Ваш будет первым!