Поиск

1973 Sonny Stitt - Soul Girl {Paula} [24-96]

1973 Sonny Stitt - Soul Girl {Paula} [24-96]
Стили:
Дата издания диска:
27 сентября 1973
Битрейт аудио:
lossless
Доп. инфо:

• Формат записи | Источник записи: [TR24][OF]
• Наличие водяных знаков: Нет
• Год издания релиза: 1973
• Лейбл: Paula Records
• Продолжительность: 00:35:35
• Источник: internet
• WEB релиз: ссылка
• Контейнер: FLAC (*.flac)
• Тип рипа: tracks
• Разрядность: 24/96
• Формат: РСМ
• Количество каналов: 2.0
• Наличие сканов: front

Лог проверки качества
foobar2000 1.4.2 / Dynamic Range Meter 1.1.1
log date: 2021-04-07 11:13:29

--------------------------------------------------------------------------------
Analyzed: Sonny Stitt / Soul Girl
--------------------------------------------------------------------------------

DR         Peak         RMS     Duration Track
--------------------------------------------------------------------------------
DR10      -1.17 dB   -13.54 dB      3:20 01-Got to Get Over
DR11      -1.17 dB   -15.18 dB      3:52 02-Soul Girl
DR14      -1.17 dB   -17.39 dB      4:38 03-Jeep Blues
DR14      -1.17 dB   -17.88 dB      5:29 04-I Know That You Know
DR11      -1.17 dB   -15.55 dB      7:20 05-I Should Care
DR8       -1.17 dB   -12.53 dB      5:15 06-Eight Track Blues
DR12      -1.17 dB   -15.28 dB      5:41 07-Gone with the Wind
--------------------------------------------------------------------------------

Number of tracks:  7
Official DR value: DR12

Samplerate:        96000 Hz
Channels:          2
Bits per sample:   24
Bitrate:           2790 kbps
Codec:             FLAC
================================================================================
No seeders - write personal message to M0p94ok. Any questions - support@pro-jazz.com.
Нет сидеров - пишите в личку M0p94ok. Есть вопросы - support@pro-jazz.com
11:49
44
Нет комментариев. Ваш будет первым!