Вы используете незарегистрированную версию компонента "Вкладки"!

Поиск

2013 Kari Ikonen Trio - Bright {Ozella} [24-96]

2013 Kari Ikonen Trio - Bright {Ozella} [24-96]
Стили:
Дата записи диска:
7 ноября и 8 ноября 2012
Место записи:
Studio Emile, Music Center, Helsinki, Finland
Дата издания диска:
9 апреля 2013
Издатель (лейбл):
Номер по каталогу:
OZ 049
Носитель:
WEB
Формат:
PCM
Тип рипа:
tracks
Контейнер:
FLAC (*.flac)
Количество каналов:
2.0
Разрядность/ЧД:
24/96
Битрейт аудио:
lossless
Время звучания:
00:48:23
Наличие сканов:
буклет pdf
Страна-производитель диска (релиза):
Germany
Релизёр (источник):
M0p94ok
Лог проверки качества
foobar2000 1.6.2 / Dynamic Range Meter 1.1.1
log date: 2021-07-09 13:45:28

--------------------------------------------------------------------------------
Analyzed: Kari Ikonen Trio / Bright
--------------------------------------------------------------------------------

DR         Peak         RMS     Duration Track
--------------------------------------------------------------------------------
DR12      -0.88 dB   -16.35 dB      6:29 01-Bapmgwala
DR14      -1.39 dB   -19.95 dB      7:36 02-Ambivalsante
DR15      -2.86 dB   -21.97 dB      6:07 03-The Testament Of My Heart
DR13      -0.84 dB   -17.55 dB      6:47 04-Plumbum
DR10      -0.81 dB   -14.95 dB      4:17 05-Giant Steps
DR13      -1.50 dB   -18.42 dB      5:39 06-I Fall In Love Too Easily
DR11      -0.88 dB   -14.88 dB      5:21 07-Trance Oriental
DR17      -3.74 dB   -25.84 dB      6:07 08-Pacific
--------------------------------------------------------------------------------

Number of tracks:  8
Official DR value: DR13

Samplerate:        96000 Hz
Channels:          2
Bits per sample:   24
Bitrate:           2197 kbps
Codec:             FLAC
================================================================================
Any questions - support@pro-jazz.com. Есть вопросы - support@pro-jazz.com
13:55
71
Нет комментариев. Ваш будет первым!