Поиск

1958 Morgana King - Sings The Blues (2019) {RevOla} [24-44.1]

1958 Morgana King - Sings The Blues (2019) {RevOla} [24-44.1]
Стили:
Издатель (лейбл):
Битрейт аудио:
lossless
Доп. инфо:

Формат записи/Источник записи: [TR24][OF]
Издание: Remastered
Год издания/переиздания диска: 1958/2019
Продолжительность: 00:41:53
Наличие сканов в содержимом раздачи: Нет

Контейнер: FLAC (*.flac)
Тип рипа: tracks
Разрядность: 24/44,1
Количество каналов: 2.0

Источник (релизер): Qobuz

Лог проверки качества
foobar2000 1.4.3 / Dynamic Range Meter 1.1.1
log date: 2021-04-06 16:57:45

--------------------------------------------------------------------------------
Analyzed: Morgana King / Sings The Blues
--------------------------------------------------------------------------------

DR         Peak         RMS     Duration Track
--------------------------------------------------------------------------------
DR11      -4.04 dB   -18.71 dB      4:03 01-More Than You Know
DR11      -3.22 dB   -17.81 dB      2:40 02-Frankie and Johnnie
DR11      -4.85 dB   -18.52 dB      3:25 03-Mean to Me
DR13      -5.12 dB   -21.31 dB      3:15 04-When Your Lover Has Gone
DR11      -4.57 dB   -19.51 dB      3:44 05-Something to Remember You By
DR11      -6.59 dB   -21.07 dB      3:54 06-I See Two Lovers
DR12      -4.66 dB   -20.92 dB      4:07 07-Body and Soul
DR13      -4.90 dB   -22.52 dB      3:27 08-Mad About the Boy
DR12      -3.98 dB   -18.30 dB      2:47 09-It's Only a Paper Moon
DR12      -4.89 dB   -21.28 dB      2:49 10-Bill
DR12      -4.31 dB   -20.60 dB      3:55 11-Can't Help Lovin' Dat Man
DR10      -5.39 dB   -20.21 dB      3:55 12-Why Was I Born?
--------------------------------------------------------------------------------

Number of tracks:  12
Official DR value: DR11

Samplerate:        44100 Hz
Channels:          2
Bits per sample:   24
Bitrate:           1227 kbps
Codec:             FLAC
================================================================================
No seeders - write personal message to M0p94ok. Any questions - support@pro-jazz.com.
Нет сидеров - пишите в личку M0p94ok. Есть вопросы - support@pro-jazz.com
15:38
55
Нет комментариев. Ваш будет первым!