Поиск

2021 Renaud Detruit & Florent Sepchat - Intime Brubeck {La Saugrenue} [24-44.1]

2021 Renaud Detruit & Florent Sepchat - Intime Brubeck {La Saugrenue} [24-44.1]
Битрейт аудио:
lossless
Доп. инфо:

Этот дуэт объединяет талантливых музыкантов одного поколения, разделяющих одну и ту же страсть. Их инструменты имеют очевидное сходство (клавишные, полифония, вибрирующие полосы), хотя способы создания звука разные, но дополняют друг друга. Хроматический аккордеон, вибрафон, маримба появились в истории музыки сравнительно недавно. В начале двадцатого века они играют выдающуюся роль во всех сферах музыкального мира: популярной и традиционной музыке, джазе, рнодеме и музыке современного искусства. Оригинальность дуэта заключается в сочетании ударных клавишных с аккордеоном и способ установления диалога между инструментами. Они имеют дело с широким репертуаром, включающим различные музыкальные сферы и требовательные стандарты композиции и баланса, связанные со свободой и сильной индивидуальностью при импровизации.

«Удивительно гладкость вибрафона и аккордеона, совершенство в гармоничном сочетании звучания, извлекаемого дуновением и ударом, сплоченность художников в их усилиях по созданию прекрасного через искусство. Слышание друг друга - это краеугольный камень их концепции, общее внимание к жестам в этом путешествии, каждое соло как рассказ, повествованию и эстетика высокого ... "(Док Пилот, TMV Mag)

https://www.highresaudio.com/en/album/view/vg3t8g/renaud-dtruit-florent-sepchat-intime-brubeck

• Формат записи | Источник записи: [TR24][OF]
• Наличие водяных знаков: Нет
• Год издания релиза: 2021
• Лейбл: La Saugrenue
• Продолжительность: 00:43:21
• Источник: internet
• Контейнер: FLAC (*.flac)
• Тип рипа: tracks
• Разрядность: 24/44,1
• Формат: PCM
• Количество каналов: 2.0
• Наличие сканов: front

Лог проверки качества
foobar2000 1.4.2 / Dynamic Range Meter 1.1.1
log date: 2021-04-07 18:43:47

--------------------------------------------------------------------------------
Analyzed: Renaud DГ©truit & Florent Sepchat / Intime Brubeck
--------------------------------------------------------------------------------

DR         Peak         RMS     Duration Track
--------------------------------------------------------------------------------
DR9       -0.26 dB   -11.24 dB      5:08 01-Fairy Blades
DR9       -0.21 dB   -10.86 dB      3:29 02-Fast Life
DR10      -0.28 dB   -12.08 dB      3:06 03-Take 11
DR9       -0.30 dB   -10.57 dB      3:21 04-R0nd0
DR9       -0.21 dB   -11.62 dB      4:15 05-Ibericana
DR8       -0.27 dB   -10.86 dB      3:23 06-Bluette
DR9       -0.30 dB   -11.94 dB      5:07 07-Entre lacs et montagnes
DR9       -0.25 dB   -12.49 dB      4:44 08-Tritonis
DR10      -0.29 dB   -13.42 dB      4:54 09-Koto Song
DR10      -0.25 dB   -12.62 dB      3:02 10-Tokyo Trafic
DR9       -0.30 dB   -11.98 dB      2:54 11-Fujiyama
--------------------------------------------------------------------------------

Number of tracks:  11
Official DR value: DR9

Samplerate:        44100 Hz
Channels:          2
Bits per sample:   24
Bitrate:           1373 kbps
Codec:             FLAC
================================================================================
No seeders - write personal message to M0p94ok. Any questions - support@pro-jazz.com.
Нет сидеров - пишите в личку M0p94ok. Есть вопросы - support@pro-jazz.com
12:50
46
Нет комментариев. Ваш будет первым!