Поиск

2019 Lafayette Harris, Jr. - You Can't Lose with the Blues {Savant} [24-44.1]

2019 Lafayette Harris, Jr. - You Can't Lose with the Blues {Savant} [24-44.1]
Место записи:
Van Gelder Recording Studio, Englewood Cliffs, New Jersey, USA
Дата издания диска:
1 ноября 2019
Издатель (лейбл):
Носитель:
WEB
Формат:
PCM
Тип рипа:
tracks
Контейнер:
FLAC (*.flac)
Количество каналов:
2.0
Разрядность/ЧД:
24/44,1
Битрейт аудио:
lossless
Время звучания:
00:57:07
Наличие сканов:
буклет pdf
Страна-производитель диска (релиза):
USA
Релизёр (источник):
M0p94ok
Доп. инфо:

Балтиморский пианист Лафайет Харрис-младший известен энергичным чувством ритмической жизненной силы, вкусным, насыщенным музыкальным подходом к клавиатуре и чувственностью, пропитанной блюзом. В новой записи Харриса, который уже много лет является основным продуктом Lenox Lounge в Гарлеме, а также участником различных групп под руководством Макса Роуча, он отражает этот опыт, а также множество влияний, от легенды буги-вуги Сэмми Прайса до Кенни. Бэррон и Барри Харрис - все они поддерживали Лафайета как многообещающего игрока. Басист Питер Вашингтон привносит в эту дату сильное чувство ритма и лирически закругленные соло, а барабанщик Льюис Нэш сохраняет ритмы сильными и устойчивыми, как швейцарские часы. Продуманный сет-лист и безупречное звучание от Van Gelder Studio делают этот альбом саморекомендуемым.

Лог проверки качества
foobar2000 1.6.2 / Dynamic Range Meter 1.1.1
log date: 2021-07-10 13:12:49

--------------------------------------------------------------------------------
Analyzed: Lafayette Harris Jr. / You Can't Lose with the Blues
--------------------------------------------------------------------------------

DR         Peak         RMS     Duration Track
--------------------------------------------------------------------------------
DR12      -0.68 dB   -14.00 dB      3:26 01-He's My Guy
DR13      -0.68 dB   -16.58 dB      4:11 02-I Love You, Yes I Do
DR13      -0.68 dB   -15.16 dB      5:03 03-Blues for Barry Harris
DR14      -0.68 dB   -16.04 dB      4:20 04-Don't Let the Sun Catch You Crying
DR12      -0.68 dB   -14.86 dB      4:55 05-Ev'ry Time We Say Goodbye
DR11      -0.68 dB   -13.37 dB      3:29 06-Things Ain't What They Used to Be
DR13      -0.68 dB   -15.64 dB      5:33 07-Love Me in a Special Way
DR12      -0.68 dB   -13.48 dB      3:34 08-Bloomdido
DR12      -0.68 dB   -14.34 dB      6:43 09-You Can't Lose with the Blues
DR12      -0.68 dB   -14.68 dB      5:16 10-Wonder Why
DR13      -0.93 dB   -18.06 dB      5:32 11-Please Send Me Someone to Love
DR13      -0.68 dB   -15.10 dB      5:05 12-The Juicy Blues
--------------------------------------------------------------------------------

Number of tracks:  12
Official DR value: DR12

Samplerate:        44100 Hz
Channels:          2
Bits per sample:   24
Bitrate:           1632 kbps
Codec:             FLAC
================================================================================
No seeders - write personal message to M0p94ok. Any questions - support@pro-jazz.com.
Нет сидеров - пишите в личку M0p94ok. Есть вопросы - support@pro-jazz.com
13:23
62
Нет комментариев. Ваш будет первым!