Поиск

1969 Charlie Byrd - Plays The Greatest Hits Of The 60's (2019) {Columbia, Legacy} [24-192]

1969 Charlie Byrd - Plays The Greatest Hits Of The 60's (2019) {Columbia, Legacy} [24-192]
Дата издания диска:
22 декабря 1969
Издатель (лейбл):
Битрейт аудио:
lossless
Доп. инфо:

Формат записи/Источник записи: [TR24][OF]
Издание: Remastered
Год издания/переиздания диска: 1969/2019
Продолжительность: 00:28:00
Наличие сканов в содержимом раздачи: Нет
Контейнер: FLAC (*.flac)
Тип рипа: tracks
Разрядность: 24/192
Количество каналов: 2.0

Источник (релизер): HDTracks

Лог проверки качества
foobar2000 1.4.3 / Dynamic Range Meter 1.1.1
log date: 2021-04-05 04:28:28

--------------------------------------------------------------------------------
Analyzed: Charlie Byrd / Charlie Byrd Plays the Greatest Hits of the 60's
--------------------------------------------------------------------------------

DR         Peak         RMS     Duration Track
--------------------------------------------------------------------------------
DR10      -0.46 dB   -12.50 dB      2:27 01-Up, Up and Away
DR12      -1.91 dB   -18.29 dB      2:23 02-Somewhere, My Love
DR10      -1.38 dB   -13.43 dB      2:49 03-The Shadow of Your Smile
DR12      -2.65 dB   -19.32 dB      2:34 04-Try to Remember
DR10      -1.42 dB   -14.78 dB      3:47 05-Michelle
DR11      -0.46 dB   -13.22 dB      1:57 06-Love Is Blue
DR11      -1.34 dB   -14.62 dB      2:53 07-Scarborough Fair / Canticle
DR10      -0.46 dB   -13.51 dB      2:20 08-Born Free
DR9       -0.46 dB   -11.27 dB      2:49 09-The Girl from Ipanema
DR12      -3.01 dB   -19.13 dB      1:57 10-Sunrise, Sunset
DR11      -0.46 dB   -14.26 dB      2:08 11-A Taste of Honey
--------------------------------------------------------------------------------

Number of tracks:  11
Official DR value: DR11

Samplerate:        192000 Hz
Channels:          2
Bits per sample:   24
Bitrate:           6379 kbps
Codec:             FLAC
================================================================================
No seeders - write personal message to M0p94ok. Any questions - support@pro-jazz.com.
Нет сидеров - пишите в личку M0p94ok. Есть вопросы - support@pro-jazz.com
15:58
51
Нет комментариев. Ваш будет первым!