Вы используете незарегистрированную версию компонента "Вкладки"!

Поиск

2019 Manuel Anoyvega Mora - Cubacuba {Cubacuba} [24-44.1]

2019 Manuel Anoyvega Mora - Cubacuba {Cubacuba} [24-44.1]
Дата издания диска:
15 ноября 2019
Носитель:
WEB
Формат:
PCM
Тип рипа:
tracks
Контейнер:
FLAC (*.flac)
Количество каналов:
2.0
Разрядность/ЧД:
24/44,1
Битрейт аудио:
lossless
Время звучания:
00:43:43
Наличие сканов:
только обложка
Страна-производитель диска (релиза):
France
Релизёр (источник):
M0p94ok
Лог проверки качества
foobar2000 1.6.2 / Dynamic Range Meter 1.1.1
log date: 2021-07-11 09:22:27

--------------------------------------------------------------------------------
Analyzed: Manuel Anoyvega Mora / Cubacuba
--------------------------------------------------------------------------------

DR         Peak         RMS     Duration Track
--------------------------------------------------------------------------------
DR6       -0.10 dB    -8.51 dB      7:15 01-Veneracion
DR9       -0.10 dB   -10.77 dB      5:04 02-Alizé
DR10      -0.16 dB   -15.25 dB      2:08 03-Preludiosa Mantanzas
DR9       -0.10 dB   -11.24 dB      5:46 04-Marinna
DR8       -0.10 dB   -10.46 dB      4:58 05-Ilduara Carrandy
DR10      -0.10 dB   -13.79 dB      5:03 06-Soplos de Musas
DR7       -0.13 dB    -9.55 dB      6:22 07-Cuba cuba ! Perla Preciosa
DR7       -0.06 dB    -9.70 dB      6:58 08-Frescoson
--------------------------------------------------------------------------------

Number of tracks:  8
Official DR value: DR9

Samplerate:        44100 Hz
Channels:          2
Bits per sample:   24
Bitrate:           1587 kbps
Codec:             FLAC
================================================================================
Any questions - support@pro-jazz.com. Есть вопросы - support@pro-jazz.com
09:35
93
Нет комментариев. Ваш будет первым!