Вы используете незарегистрированную версию компонента "Вкладки"!

Поиск

2020 Massimo Farao Trio - Like an Elegant Wine {Venus} [DSD64 ISO]

2020 Massimo Farao Trio - Like an Elegant Wine {Venus} [DSD64 ISO]
Дата записи диска:
15 февраля - 16 февраля 2020
Место записи:
Magister Recording Area Studios, Preganziol, Italy
Издатель (лейбл):
Номер по каталогу:
VHGD-360
Битрейт аудио:
lossless
Доп. инфо:

https://www.hraudio.net/showmusic.php?title=14424

Формат записи/Источник записи: [SACD-R][OF]
Наличие водяных знаков: Нет
Год издания диска: 2020
Продолжительность: 00:46:32
Наличие сканов в содержимом раздачи: Только обложка альбома

Контейнер: ISO (*.iso)
Тип рипа: image
Разрядность: 64(2,8 MHz/1 Bit)
Формат: DSD
Количество каналов: 2.0
Источник (релизер): jazzy pic

Лог проверки качества
foobar2000 1.6.4 / Dynamic Range Meter 1.1.1
log date: 2021-04-06 19:26:06

--------------------------------------------------------------------------------
Analyzed: Massimo Faraò Trio with Strings Orchestra / Like An Elegant Wine
--------------------------------------------------------------------------------

DR         Peak         RMS     Duration Track
--------------------------------------------------------------------------------
DR11      -5.44 dB   -20.23 dB      5:40 01-Love Came On Stealthy Fingers
DR12      -5.63 dB   -20.35 dB      5:08 02-Io Che Amo Solo Te
DR12      -5.50 dB   -21.05 dB      4:53 03-An Older Man Is Like An Elegant Wine
DR10      -5.58 dB   -18.27 dB      4:24 04-Days Of Wine And Roses
DR11      -5.47 dB   -20.05 dB      6:05 05-When Summer Comes
DR12      -5.87 dB   -20.74 dB      5:15 06-The Nearness Of You
DR10      -5.47 dB   -19.31 dB      5:02 07-'Tis Autumn
DR12      -5.73 dB   -20.74 dB      5:14 08-Easy Living
DR11      -5.62 dB   -20.32 dB      4:52 09-Spring Will Be A Little Late This Year
--------------------------------------------------------------------------------

Number of tracks:  9
Official DR value: DR11

Samplerate:        2822400 Hz / PCM Samplerate: 88200 Hz
Channels:          2
Bits per sample:   1
Bitrate:           5645 kbps
Codec:             DSD64
================================================================================
Any questions - support@pro-jazz.com. Есть вопросы - support@pro-jazz.com
11:33
92
Нет комментариев. Ваш будет первым!