Поиск

1964 Jimmy Smith - Christmas Cookin' (1992) {Verve Reissues} [24-192]

1964 Jimmy Smith - Christmas Cookin' (1992) {Verve Reissues} [24-192]
Стили:
Дата записи диска:
20 мая 1964 - 28 сентября 1966
Место записи:
Van Gelder Recording Studio, Englewood Cliffs, New Jersey, USA
Издатель (лейбл):
Битрейт аудио:
lossless
Доп. инфо:

Формат записи/Источник записи: [TR24][OF]
Издание: Remastered
Год издания/переиздания диска: 1964/1992
Продолжительность: 00:49:07
Наличие сканов в содержимом раздачи: Нет

Контейнер: FLAC (*.flac)
Тип рипа: tracks
Разрядность: 24/192
Количество каналов: 2.0

Источник (релизер): HDTracks

Лог проверки качества
foobar2000 1.4.3 / Dynamic Range Meter 1.1.1
log date: 2021-03-31 04:15:58

--------------------------------------------------------------------------------
Analyzed: Jimmy Smith / Christmas Cookin'
--------------------------------------------------------------------------------

DR         Peak         RMS     Duration Track
--------------------------------------------------------------------------------
DR9       -0.34 dB   -11.37 dB      4:19 01-God Rest Ye Merry Gentlemen
DR11      -0.34 dB   -14.50 dB      3:12 02-Jingle Bells
DR10      -0.34 dB   -13.60 dB      3:46 03-We Three Kings (Of Orient Are)
DR11      -0.34 dB   -13.83 dB      4:33 04-The Christmas Song
DR9       -0.34 dB   -12.46 dB      2:50 05-White Christmas
DR9       -0.34 dB   -11.69 dB      5:24 06-Santa Claus Is Coming To Town
DR9       -0.34 dB   -13.00 dB      4:04 07-Silent Night
DR10      -0.34 dB   -13.55 dB      6:08 08-God Rest Ye Merry Gentlemen
DR10      -0.34 dB   -11.69 dB      5:59 09-Baby, It's Cold Outside
DR8       -0.34 dB   -10.01 dB      8:56 10-Greensleeves
--------------------------------------------------------------------------------

Number of tracks:  10
Official DR value: DR9

Samplerate:        192000 Hz
Channels:          2
Bits per sample:   24
Bitrate:           6103 kbps
Codec:             FLAC
================================================================================
No seeders - write personal message to M0p94ok. Any questions - support@pro-jazz.com.
Нет сидеров - пишите в личку M0p94ok. Есть вопросы - support@pro-jazz.com
15:32
60
Нет комментариев. Ваш будет первым!