Поиск

2019 VA - J Jazz– Deep Modern Jazz from Japan 1969 – 1983 Vol.2 Sampler (Remastered) {BBE} [24-44.1]

2019 VA - J Jazz– Deep Modern Jazz from Japan 1969 – 1983 Vol.2 Sampler (Remastered) {BBE} [24-44.1]
Дата записи диска:
30 июня 1969 - 14 июля 1983
Дата издания диска:
6 сентября 2019
Носитель:
WEB
Формат:
PCM
Тип рипа:
tracks
Контейнер:
FLAC (*.flac)
Количество каналов:
2.0
Разрядность/ЧД:
24/44,1
Битрейт аудио:
lossless
Время звучания:
00:58:59
Наличие сканов:
только обложка
Страна-производитель диска (релиза):
Japan
Релизёр (источник):
M0p94ok
Доп. инфо:

После распродажи нашего знакового сборника «J-Jazz: глубокий современный джаз из Японии 1969–1984 годов» BBE Records рада представить еще одно исследование самого прекрасного японского современного джаза.

J Jazz 2 строится на прочном фундаменте первой компиляции и видит, что со-компиляторы Тони Хиггинс и Майк Педен снова выбирают избранные части из своих собственных коллекций пластинок. Они представляют собой глубокое погружение в пьянящий и завораживающий диапазон стилей: от кинематографического ревущего биг-бэнда (Little G от Нобуо Хара) и редкого минималистичного акустического фанка (Teru Teru Bozo от Teru Sakomoto) до глубоких духовных модальных эпосов (Dragon Dance by Нобуо Хара). Макото Терашита и Гарольд Лэнд) и фанк-фьюжн («Мать будущего» от Electro Keyboard Orchestra). J Jazz 2 предлагает более удивительный высококачественный джаз, который понравится как приверженцам старой школы, так и тем, кто копает нынешние звуки нынешнего яркого джазового взрыва в Великобритании и США.

Специально выбранные треки на втором томе Jazz охватывают 25 лет японского музыкального прогресса и изобретений. От элегической и суровой красоты Серенады до тускло освещенной улицы и модального водоворота Дагури, до яростной свободы пост-бопа в Bull Trout и среднетемповой босса во Вьетнаме - здесь есть достаточно, чтобы удовлетворить самых любопытных и требовательных. Поклонник джаза найдёт что-то особенное.

https://www.highresaudio.com/en/album/view/pddmf3/various-artists-j-jazz-j-jazz-deep-modern-jazz-from-japan-1969-1983-volume-2-sampler-remastered

Лог проверки качества
foobar2000 1.6.2 / Dynamic Range Meter 1.1.1
log date: 2021-06-22 13:27:48

--------------------------------------------------------------------------------
Analyzed: Hideto Sasaki, Toshiyuki Sekine Quartet + 1 / J Jazz – Deep Modern Jazz from Japan 1969 – 1983 Volume 2 - Sampler (Remastered) (1)
          Koichi Matsukaze / J Jazz – Deep Modern Jazz from Japan 1969 – 1983 Volume 2 - Sampler (Remastered) (2)
          Makoto Terashita, Harold Land / J Jazz – Deep Modern Jazz from Japan 1969 – 1983 Volume 2 - Sampler (Remastered) (3)
          Masahiko Sato / J Jazz – Deep Modern Jazz from Japan 1969 – 1983 Volume 2 - Sampler (Remastered) (4)
          Takashi Miyasaka Quintet / J Jazz – Deep Modern Jazz from Japan 1969 – 1983 Volume 2 - Sampler (Remastered) (5-6)
--------------------------------------------------------------------------------

DR         Peak         RMS     Duration Track
--------------------------------------------------------------------------------
DR11      -2.00 dB   -15.54 dB      9:21 02-Stop Over
DR14      -0.21 dB   -17.67 dB      8:40 04-The Original Bill
DR10      -0.75 dB   -15.01 dB     12:33 01-Dragon Dance
DR12       0.00 dB   -14.49 dB      9:38 06-Fallout
DR12      -1.19 dB   -16.05 dB     10:28 03-Animal's Garden
DR14       0.00 dB   -15.82 dB      8:21 05-Straight Road
--------------------------------------------------------------------------------

Number of tracks:  6
Official DR value: DR12

Samplerate:        44100 Hz
Channels:          2
Bits per sample:   24
Bitrate:           1620 kbps
Codec:             FLAC
================================================================================
No seeders - write personal message to M0p94ok. Any questions - support@pro-jazz.com.
Нет сидеров - пишите в личку M0p94ok. Есть вопросы - support@pro-jazz.com
13:55
65
Нет комментариев. Ваш будет первым!