Поиск

1954 Urbie Green And His All-Stars - A Cool Yuletide (2018) {Legacy} [24-192]

1954 Urbie Green And His All-Stars - A Cool Yuletide (2018) {Legacy} [24-192]
Стили:
Дата издания диска:
27 сентября 1954
Издатель (лейбл):
Битрейт аудио:
lossless
Доп. инфо:

Формат записи/Источник записи: [TR24][OF]
Издание: Remaster
Год издания/переиздания диска: 1954/2018
Продолжительность: 00:23:26
Наличие сканов в содержимом раздачи: Нет

Контейнер: FLAC (*.flac)
Тип рипа: tracks
Разрядность: 24/192
Количество каналов: 2.0

Источник (релизер): HDTracks

Лог проверки качества
foobar2000 1.4.3 / Dynamic Range Meter 1.1.1
log date: 2021-03-25 23:38:01

--------------------------------------------------------------------------------
Analyzed: Urbie Green / A Cool Yuletide (Remastered 2018)
--------------------------------------------------------------------------------

DR         Peak         RMS     Duration Track
--------------------------------------------------------------------------------
DR13      -0.33 dB   -15.67 dB      3:21 01-Jingle Bells
DR13      -0.43 dB   -16.70 dB      2:54 02-All I Want For Christmas Is My Two Front Teeth
DR11      -2.84 dB   -17.93 dB      2:35 03-White Christmas
DR14      -0.45 dB   -17.54 dB      2:59 04-Winter Wonderland
DR13      -1.18 dB   -17.19 dB      2:37 05-I Saw Mommy Kissing Santa Claus
DR14      -0.44 dB   -17.59 dB      3:11 06-Santa Claus Is Comin' to Town
DR12      -0.93 dB   -18.44 dB      2:50 07-The Christmas Song
DR15      -0.30 dB   -17.45 dB      3:06 08-Rudolph, The Red-Nosed Reindeer
--------------------------------------------------------------------------------

Number of tracks:  8
Official DR value: DR13

Samplerate:        192000 Hz
Channels:          2
Bits per sample:   24
Bitrate:           3232 kbps
Codec:             FLAC
================================================================================
No seeders - write personal message to M0p94ok. Any questions - support@pro-jazz.com.
Нет сидеров - пишите в личку M0p94ok. Есть вопросы - support@pro-jazz.com
09:24
72
Нет комментариев. Ваш будет первым!