Поиск

2021 Piers Faccini - Shapes of the Fall {Nø Førmat!} [24-88.2]

2021 Piers Faccini - Shapes of the Fall {Nø Førmat!} [24-88.2]
Место записи:
Blackbox, Angers, France
Дата издания диска:
2 апреля 2021
Издатель (лейбл):
Битрейт аудио:
lossless
Доп. инфо:

Формат записи/Источник записи: [TR24][OF]
Наличие водяных знаков: Нет
Год издания/переиздания диска: 2021
Продолжительность: 00:44:17
Наличие сканов в содержимом раздачи: Да (сканы)
Источник (релизер): qobuz

Контейнер: FLAC (*.flac)
Тип рипа: tracks
Разрядность: 24/88,2
Формат: PCM
Количество каналов: 2.0

Лог проверки качества
foobar2000 1.1.15 / Dynamic Range Meter 1.1.1
log date: 2021-04-02 19:42:58

--------------------------------------------------------------------------------
Analyzed: Piers Faccini / Shapes of the Fall
--------------------------------------------------------------------------------

DR         Peak         RMS     Duration Track
--------------------------------------------------------------------------------
DR5       -0.05 dB    -9.15 dB      3:22 01-They Will Gather No Seed
DR6       -0.12 dB    -8.35 dB      3:16 02-Foghorn Calling
DR6       -0.12 dB    -8.73 dB      4:30 03-Dunya
DR7       -0.06 dB   -10.01 dB      4:18 04-Together Forever Everywhere
DR5       -0.12 dB    -7.15 dB      3:32 05-All Aboard
DR8       -0.12 dB    -9.89 dB      3:58 06-Levante
DR6       -0.05 dB    -9.74 dB      4:30 07-Lay Low to Lie
DR8       -0.06 dB   -10.70 dB      3:04 08-The Longest Night
DR6       -0.12 dB    -7.47 dB      3:46 09-Firefly
DR8       -0.05 dB   -10.33 dB      2:34 10-Paradise Fell
DR7       -0.06 dB    -9.46 dB      2:18 11-Remember Them
DR7       -0.12 dB   -10.46 dB      2:46 12-The Real Way Out
DR9       -0.06 dB   -12.25 dB      2:30 13-Epilogue
--------------------------------------------------------------------------------

Number of tracks:  13
Official DR value: DR7

Samplerate:        88200 Hz
Channels:          2
Bits per sample:   24
Bitrate:           2540 kbps
Codec:             FLAC
================================================================================
No seeders - write personal message to M0p94ok. Any questions - support@pro-jazz.com.
Нет сидеров - пишите в личку M0p94ok. Есть вопросы - support@pro-jazz.com
21:31
69
Нет комментариев. Ваш будет первым!